img image001 image001 image001 image001 image001 image001 image001 image001 image001 image001 image001 image001 image001 image001 image001

Planets Sun Sun Sun
Статистика раздачи
Автор: Nickolas3434 | Размер: 2.06 ГБ | Добавлен: 22 фев 2014
Раздают: 183    Качают: 64
Скачать торрент
Скачать торрент
Описание торрента

СообщениеДобавлено: 22 фев 2014 

Информация о фильме
Название: Трагедия человека
Оригинальное название: The Tragedy of Man / Az ember tragédiája
Год выхода: 2011
Жанр: Мультфильм, драма
Режиссер: Марцелл Янкович / Marcell Jankovics
В ролях: Аньес Берталан, Питер Бласко, Ференц Борбижский, Янош Бачкаи, Ласло Чурка, Иван Дендьель, Андреа Фуллайтар, Барбара Хедьи, Иштван Конц, Peter Korbuly...

О фильме: «Путешествие через всю человеческую историю, полную горестей, трагедий и разочарований.»
Венгерский анимационный фильм, основанный на сценарии 1983 года. Работы над фильмом начались в 1988 году и закончились в 2011.
В основе «Трагедии человека» одноименная поэтическая пьеса венгерского философа, историка и поэта Имре Мадача (1823-1864). И по амбиции замысла, и по глубине философии, и по форме это произведение нередко сравнивают с «Фаустом» Гёте. Сравнение и впрямь напрашивается. Действие пьесы начинается с бунта Люцифера, который отказывается признавать красоту Божественного мира, а затем соблазняет к грехопадению Адама и Еву. Лишившись Рая, Адам оказывается на земле и в очередном разговоре с Люцифером просит показать ему будущее человеческого рода. Далее начинается путешествие через всю человеческую историю, полную горестей, трагедий и разочарований. Побывав в Древнем Египте, Греции, Риме, средневековой Европе и революционной Франции Адам видит, что люди везде жадны, жестоки и амбициозны, а прекрасные идеи оборачиваются лишь новыми ужасами.
В образе фараона, стремящегося увековечить себя в пирамидах, Адам понимает, как ничтожно личное тщеславие, в образе греческого воина, верно служащего своему народу, узнает о неблагодарности черни, в образе Кеплера познает суету скованного предрассудками полузнания. Так путешествие продолжается вплоть до утопических вселенных, которые по идеальному образу созданы для Адама Люцифером, чтобы окончательно развенчать его веру в любые идеалы и лишить надежды на лучшее.

Страна: Венгрия
Студия: Focus - Fox Studio, Kodak Cinelabs Hungary, Magyar Filmlaboratorium…
Продолжительность: 02:39:23
Перевод: Любительский (Одноголосый, закадровый) Max Nabokov

Файл
Кодек: MPEG-4 Visual
Качество: DVDRip
Видео: MPEG-4 Visual, 720 x 520, ~1459 kbps
Звук #1: AC-3, 2 ch, 192 kbps [Русский Max Nabokov]
Звук #2: AC-3, 2 ch, 192 kbps [Венгерский (отдельным файлом)]
Субтитры: Русские [softsub (SRT)]

Доп. информация: Текст взят из перевода одноименной поэмы “Трагедия человека” - Дарья Анисимова, Юрий Гусев 2011 г., редакция – Mаксим Набоков 2012 г. .

Семпл

Общее
Полное имя : G:Трагедия человека The Tragedy of Man Az ember tragédiája [2011, DVDRip]Tragedia chelovekaТРАГЕДИЯ ЧЕЛОВЕКА.avi
Формат : AVI
Формат/Информация : Audio Video Interleave
Профиль формата : OpenDML
Размер файла : 1,85 Гбайт
Продолжительность : 2 ч. 39 м.
Общий поток : 1662 Кбит/сек
Программа кодирования : Lavf51.12.1

Видео
Идентификатор : 0
Формат : MPEG-4 Visual
Профиль формата : Simple@L1
Параметр BVOP формата : Нет
Параметр QPel формата : Нет
Параметр GMC формата : Без точки перехода
Параметр матрицы формата : Default (H.263)
Идентификатор кодека : FMP4
Продолжительность : 2 ч. 39 м.
Битрейт : 1459 Кбит/сек
Ширина : 720 пикселей
Высота : 520 пикселей
Соотношение сторон : 1,385
Частота кадров : 24,000 кадра/сек
Цветовое пространство : YUV
Субдискретизация насыщенности : 4:2:0
Битовая глубина : 8 бит
Тип развёртки : Прогрессивная
Метод сжатия : С потерями
Бит/(Пиксели*Кадры) : 0.162
Размер потока : 1,62 Гбайт (88%)
Библиотека кодирования : Lavc51.40.4

Аудио
Идентификатор : 1
Формат : AC-3
Формат/Информация : Audio Coding 3
Расширение режима : CM (complete main)
Параметр Endianness формата : Big
Идентификатор кодека : 2000
Продолжительность : 2 ч. 39 м.
Вид битрейта : Постоянный
Битрейт : 192 Кбит/сек
Каналы : 2 канала
Расположение каналов : Front: L R
Частота : 48,0 КГц
Битовая глубина : 16 бит
Метод сжатия : С потерями
Размер потока : 219 Мбайт (12%)
Выравнивание : Соединение по промежуткам
Продолжительность промежутка : 32 мс. (0,77 видеокадр)
Время предзагрузки промежутка : 32 мс.



   Похожие торренты   Торрент   Размер 
В этой теме нет новых непрочитанных сообщений. Трагедия Мстителя / Revengers Tragedy (2002) DVDRip

120 | 39

1.38 ГБ

В этой теме нет новых непрочитанных сообщений. Трагедия сироты / Gu xing xue lei / An Orphan's Tragedy (1955) DVDRip от Трактир

1 | 1

1.37 ГБ

В этой теме нет новых непрочитанных сообщений. Сыновья человека с каменным сердцем / A köszívü ember fiaii (1965) DVDRip от Files-x

6 | 3

2.44 ГБ

В этой теме нет новых непрочитанных сообщений. Трагедия Мстителя / Revengers Tragedy (2002) DVD5

32 | 15

4.15 ГБ

В этой теме нет новых непрочитанных сообщений. Охотники за тайнами: Винтерпойнтская трагедия / Mystery Trackers: Winterpoint Tragedy CE (2015) PC

2373 | 79

1.18 ГБ

В этой теме нет новых непрочитанных сообщений. Трагедия смешного человека / Tragedia di un uomo ridicolo (1981) DVDRip - Generalfilm

1 | 2

1.46 ГБ

В этой теме нет новых непрочитанных сообщений. Пуаро Агаты Кристи: Трехактовая трагедия / Agatha Christie's Poirot: Three Act Tragedy (2010) HDRip

33 | 7

1.37 ГБ




Вы не можете начинать темы
Вы не можете отвечать на сообщения
Вы не можете редактировать свои сообщения
Вы не можете удалять свои сообщения
Вы не можете добавлять вложения

Перейти:  
Для Мосгорсуда, Роскомнадзора и рекламодателей: mosgorsud-torrent[собачка]yandex.ru
 Вход
ppkBB3cker v.2 © 2008-2014 @ PPK
[ Time : 0.022s | 15 Queries | GZIP : Off ]

Торрент трекер RUTOR.IN, Не можете зайти на rutor.org? Какой новый адрес рутор? Какое зеркало рутор? Не работает rutor.org и зеркала? Тогда наш торрент специально для вас. Rutor.in неофициальное зеркало rutor. В случае если у Вас заблокирован rutor или вдруг Вы не можете на него зайти, то Вы без труда сможете скачать бесплатно и без рекламы последние новинки кино, игр, сериалов и прочего у нас, на Rutor.in. Не нужно использовать прокси, чтобы зайти на рутор, достаточно воспользоваться нашим ресурсом. Все новые фильмы, игры, сериалы, книги и музыка за 2013 и 2014 годы через торрент бесплатно. Скачивайте фильмы в хорошем качестве, игры для пк, xbox, playstation без регистрации. У нас вы найдете новые Зарубежные сериалы и Русские сериалы 2013, 2014, 2015 годов. Оставайтесь с нами, качайте любимые фильмы, игры, сериалы, книги и музыку.