img image001 image001 image001 image001 image001 image001 image001 image001 image001 image001 image001 image001 image001 image001 image001

Planets Sun Sun Sun
Статистика раздачи
Автор: Nickolas3434 | Размер: 215.1 МБ | Добавлен: 23 фев 2014
Раздают: 66    Качают: 6
Скачать торрент
Скачать торрент
Описание торрента

СообщениеДобавлено: 23 фев 2014 

«Кто был никем, тот всем ещё покажет»



Год выпуска: 2014
Производство: Австралия, США, Дания / Warner Bros. Pictures, Village Roadshow Pictures, LEGO
Жанр: Мультфильм, фэнтези, комедия, приключения, семейный
Перевод: Дублированный

Режиссеры: Фил Лорд, Кристофер Миллер
Продюсеры: Рой Ли, Дэн Лин, Эллисон Эббейт
Актеры: Крис Прэтт, Уилл Феррелл, Элизабет Бэнкс, Уилл Арнетт, Лиам Нисон, Морган Фриман, Элисон Бри, Дэвид Берроуз, Энтони Дэниелс, Чарли Дэй

Описание фильма:
Обычная лего-фигурка, ошибочно считающая себя фигуркой из элитного набора, соглашается присоединиться к походу против злого лего-диктатора, планирующего склеить вместе всю вселенную…


Дата мировой премьеры: 1 февраля 2014
Дата российской премьеры: 27 февраля 2014, «Каро-Премьер» 3D
Дата выхода DVD/Blu-Ray: 12 июня 2014, «CP Дистрибуция»


Продолжительность: 00:02:03
Качество видео: HDTVRip

Видео: MPEG-4 AVC, 1920х800, 14,4 Мбит/сек
Аудио: AAC 2.0, 125 Кбит/сек [Русский]

Общее
Полное имя : C:VIDEOThe Lego Movie (2014) HDTVRip 1080p [трейлер].mp4
Формат : MPEG-4
Профиль формата : Base Media / Version 2
Идентификатор кодека : mp42
Размер файла : 215 Мбайт
Продолжительность : 2 м. 3 с.
Режим общего битрейта : Переменный
Общий поток : 14,6 Мбит/сек
Жанр : Animation
Тип содержимого : Short Film
Дата записи : 2014
Дата кодирования : UTC 2013-11-01 08:33:25
Дата пометки : UTC 2013-11-01 08:44:46
Правообладатель : Long_Boy
Обложка : Yes
LongDeion : В 2014 году величайшие герои планеты объединяться в грандиознейшем фильме когда-либо снятом... / Обычная лего-фигурка, ошибочно считающая себя фигуркой из элитного набора, соглашается присоединиться к походу против злого лего-диктатора, планирующего склеить вместе всю вселенную…

Видео
Идентификатор : 1
Формат : AVC
Формат/Информация : Advanced Video Codec
Профиль формата : Main@L4.0
Параметр CABAC формата : Да
Параметр ReFrames формата : 2 кадра
Идентификатор кодека : avc1
Идентификатор кодека/Информация : Advanced Video Coding
Продолжительность : 2 м. 3 с.
Битрейт : 14,4 Мбит/сек
Максимальный битрейт : 25,1 Мбит/сек
Ширина : 1920 пикселей
Высота : 800 пикселей
Соотношение сторон : 2,40:1
Режим частоты кадров : Постоянный
Частота кадров : 25,000 кадров/сек
Цветовое пространство : YUV
Субдискретизация насыщенности : 4:2:0
Битовая глубина : 8 бит
Тип развёртки : Прогрессивная
Бит/(Пиксели*Кадры) : 0.375
Размер потока : 213 Мбайт (99%)
Язык : English
Дата кодирования : UTC 2013-11-01 08:33:25
Дата пометки : UTC 2013-11-01 08:41:48

Аудио
Идентификатор : 2
Формат : AAC
Формат/Информация : Advanced Audio Codec
Профиль формата : LC
Идентификатор кодека : 40
Продолжительность : 2 м. 3 с.
Вид битрейта : Переменный
Битрейт : 125 Кбит/сек
Максимальный битрейт : 153 Кбит/сек
Каналы : 2 канала
Расположение каналов : Front: L R
Частота : 44,1 КГц
Метод сжатия : С потерями
Размер потока : 1,85 Мбайт (1%)
Заголовок : und
Дата кодирования : UTC 2013-11-01 08:33:25
Дата пометки : UTC 2013-11-01 08:41:48

Меню
00:00:00.000 : Start


Скриншоты:



   Похожие торренты   Торрент   Размер 
В этой теме нет новых непрочитанных сообщений. Лего. Фильм / The Lego Movie (2014) Blu-Ray 1080p | Лицензия

21 | 7

29.87 ГБ

В этой теме нет новых непрочитанных сообщений. Лего. Фильм / The Lego Movie (2014) BDRip 1080p | Лицензия

390 | 27

7.66 ГБ

В этой теме нет новых непрочитанных сообщений. Лего. Фильм / The Lego Movie (2014) BDRip 1080p от HDTracker | A, D

38 | 63

9.47 ГБ

В этой теме нет новых непрочитанных сообщений. Лего. Фильм / The Lego Movie (2014) BDRip 1080p от NNNB

216 | 20

5.75 ГБ

В этой теме нет новых непрочитанных сообщений. Лего. Фильм / The Lego Movie (2014) BDRip 1080p от Ash61 | 3D-Video | halfOU | iTunes

363 | 99

6.36 ГБ

В этой теме нет новых непрочитанных сообщений. Лего. Фильм / The Lego Movie (2014) BDRip 1080p от Ash61 | 3D-Video | halfOU | Лицензия

200 | 25

6.59 ГБ

В этой теме нет новых непрочитанных сообщений. Лего. Фильм / The Lego Movie (2014) TS

203 | 25

743.46 МБ




Вы не можете начинать темы
Вы не можете отвечать на сообщения
Вы не можете редактировать свои сообщения
Вы не можете удалять свои сообщения
Вы не можете добавлять вложения

Перейти:  
Для Мосгорсуда, Роскомнадзора и рекламодателей: mosgorsud-torrent[собачка]yandex.ru
 Вход
ppkBB3cker v.2 © 2008-2014 @ PPK
[ Time : 0.535s | 15 Queries | GZIP : Off ]

Торрент трекер RUTOR.IN, Не можете зайти на rutor.org? Какой новый адрес рутор? Какое зеркало рутор? Не работает rutor.org и зеркала? Тогда наш торрент специально для вас. Rutor.in неофициальное зеркало rutor. В случае если у Вас заблокирован rutor или вдруг Вы не можете на него зайти, то Вы без труда сможете скачать бесплатно и без рекламы последние новинки кино, игр, сериалов и прочего у нас, на Rutor.in. Не нужно использовать прокси, чтобы зайти на рутор, достаточно воспользоваться нашим ресурсом. Все новые фильмы, игры, сериалы, книги и музыка за 2013 и 2014 годы через торрент бесплатно. Скачивайте фильмы в хорошем качестве, игры для пк, xbox, playstation без регистрации. У нас вы найдете новые Зарубежные сериалы и Русские сериалы 2013, 2014, 2015 годов. Оставайтесь с нами, качайте любимые фильмы, игры, сериалы, книги и музыку.
cron