img image001 image001 image001 image001 image001 image001 image001 image001 image001 image001 image001 image001 image001 image001 image001

Planets Sun Sun Sun
Статистика раздачи
Автор: Nickolas3434 | Размер: 743.78 МБ | Добавлен: 24 фев 2014
Раздают: 44    Качают: 8
Скачать торрент
Скачать торрент
Описание торрента

СообщениеДобавлено: 24 фев 2014 

Последний Единорог / The Last Unicorn (1982) HDRip

Информация о фильме
Название: Последний Единорог
Оригинальное название: The Last Unicorn
Год выпуска: 1982
Жанр: Анимационный, Детский, Семейный
Режиссер: Жюль Басс, Артур Ранкин мл. / Jules Bass, Arthur Rankin Jr.
В ролях: Алан Аркин, Джеф Бриджес, Миа Ферроу Темми Гримс, Роберт Клейн, Анжела Ленсбери, Кристофер Ли
Роли озвучивали: Алан Аркин, Джеф Бриджес, Миа Ферроу Темми Гримс, Роберт Клейн, Анжела Ленсбери, Кристофер Ли

Описание:

В далекой волшебной стране в сиреневой роще жил юный прекрасный единорог, знающий секреты магии. Однажды он узнал, что все его сородичи исчезли с лица земли, и он может стать последним единорогом на свете. И тогда единорог покинул свою рощу и отправился в долгое и опасное путешествие, чтобы разыскать и спасти своих сородичей. Много приключений пришлось ему пережить и многих опасных врагов довелось повстречать - свиноподобную ведьму Матушку Фортуну, шайку разбойников капитана Калли, злобного и жадного короля Хэггорда. Но с помощью верных друзей - волшебника-недоучки Шмендрика, девушки Молли и прекрасного принца Лира - единорогу удалось одолеть огромного и страшного Красного Быка и освободить своих собратьев-единорогов.




Страна: США, Япония, Великобритания, Германия (ФРГ)
Продолжительность: 01:33:03
Перевод: Профессиональный (многоголосый закадровый)
Русские субтитры: нет

Файл
Качество: HDRip
Формат: AVI
Видео: 688x368 (1.87:1), 23.976 fps, XviD build 61, 915 kbps avg, 0.15 bit/pixel
Аудио: Dolby AC3 48000Hz stereo 192kbps
Субтитры: Отсутствуют

Код:
Format                           : AVI
Format/Info                      : Audio Video Interleave
File size                        : 744 MiB
Duration                         : 1h 33mn
Overall bit rate                 : 1 117 Kbps
Writing application              : VirtualDubMod 1.5.10.3 | www.virtualdub-fr.org || (build 2550/release)
Writing library                  : VirtualDubMod build 2550/release

Video
ID                               : 0
Format                           : MPEG-4 Visual
Format profile                   : Advanced Simple@L5
Format settings, BVOP            : 2
Format settings, QPel            : No
Format settings, GMC             : No warppoints
Format settings, Matrix          : Default (MPEG)
Codec ID                         : XVID
Codec ID/Hint                    : XviD
Duration                         : 1h 33mn
Bit rate                         : 916 Kbps
Width                            : 688 pixels
Height                           : 368 pixels
Display aspect ratio             : 1.870
Frame rate                       : 23.976 fps
Color space                      : YUV
Chroma subsampling               : 4:2:0
Bit depth                        : 8 bits
Scan type                        : Progressive
Compression mode                 : Lossy
Bits/(Pixel*Frame)               : 0.151
Stream size                      : 610 MiB (82%)
Writing library                  : XviD 61

Audio
ID                               : 1
Format                           : AC-3
Format/Info                      : Audio Coding 3
Mode extension                   : CM (complete main)
Codec ID                         : 2000
Duration                         : 1h 33mn
Bit rate mode                    : Constant
Bit rate                         : 192 Kbps
Channel(s)                       : 2 channels
Channel positions                : Front: L R
Sampling rate                    : 48.0 KHz
Bit depth                        : 16 bits
Compression mode                 : Lossy
Stream size                      : 128 MiB (17%)
Alignment                        : Split accross interleaves
Interleave, duration             : 42 ms (1.00 video frame)
Interleave, preload duration     : 500 ms



Спасибо большое Yabrat!



   Похожие торренты   Торрент   Размер 
В этой теме нет новых непрочитанных сообщений. Последний единорог / The Last Unicorn (1982) DVD5

1 | 2

2.05 ГБ

В этой теме нет новых непрочитанных сообщений. Последний единорог / The Last Unicorn (1982) DVDRip

2 | 7

682.29 МБ

В этой теме нет новых непрочитанных сообщений. Последний Единорог / The Last Unicorn (1982) DVD9 | D, P, A

0 | 2

4.85 ГБ

В этой теме нет новых непрочитанных сообщений. Последний Единорог / The Last Unicorn (1982) BDRemux

0 | 1

25.41 ГБ

В этой теме нет новых непрочитанных сообщений. Последний единорог / The Last Unicorn (1982) DVD9 | A

21 | 4

6.53 ГБ

В этой теме нет новых непрочитанных сообщений. Последний Единорог / The Last Unicorn (1982) DVD5

0 | 2

4.24 ГБ

В этой теме нет новых непрочитанных сообщений. Последний Единорог / The Last Unicorn (1982) BDRip 1080p

7 | 1

5.6 ГБ




Вы не можете начинать темы
Вы не можете отвечать на сообщения
Вы не можете редактировать свои сообщения
Вы не можете удалять свои сообщения
Вы не можете добавлять вложения

Перейти:  
Для Мосгорсуда, Роскомнадзора и рекламодателей: mosgorsud-torrent[собачка]yandex.ru
 Вход
ppkBB3cker v.2 © 2008-2014 @ PPK
[ Time : 0.050s | 15 Queries | GZIP : Off ]

Торрент трекер RUTOR.IN, Не можете зайти на rutor.org? Какой новый адрес рутор? Какое зеркало рутор? Не работает rutor.org и зеркала? Тогда наш торрент специально для вас. Rutor.in неофициальное зеркало rutor. В случае если у Вас заблокирован rutor или вдруг Вы не можете на него зайти, то Вы без труда сможете скачать бесплатно и без рекламы последние новинки кино, игр, сериалов и прочего у нас, на Rutor.in. Не нужно использовать прокси, чтобы зайти на рутор, достаточно воспользоваться нашим ресурсом. Все новые фильмы, игры, сериалы, книги и музыка за 2013 и 2014 годы через торрент бесплатно. Скачивайте фильмы в хорошем качестве, игры для пк, xbox, playstation без регистрации. У нас вы найдете новые Зарубежные сериалы и Русские сериалы 2013, 2014, 2015 годов. Оставайтесь с нами, качайте любимые фильмы, игры, сериалы, книги и музыку.