img image001 image001 image001 image001 image001 image001 image001 image001 image001 image001 image001 image001 image001 image001 image001

Planets Sun Sun Sun
Статистика раздачи
Автор: Nickolas3434 | Размер: 1.89 ГБ | Добавлен: 26 фев 2014
Раздают: 32    Качают: 3
Скачать торрент
Скачать торрент
Описание торрента

СообщениеДобавлено: 26 фев 2014 

Информация о фильме
Название: Холодное сердце
Оригинальное название: Frozen
Год выпуска: 2013
Жанр: Мультфильм, фэнтези, комедия, приключения, семейный
Выпущено: США
Режиссер: Крис Бак, Дженнифер Ли
В ролях: Кристен Белл, Идина Мензел, Джонатан Грофф, Джош Гад, Сантино Фонтана, Алан Тьюдик, Киаран Хайндс, Крис Уильямс, Стивен Дж. Андерсон, Майа Уилсон

О фильме: Когда древнее предсказание сбывается и королевство погружается в объятия вечной зимы, трое бесстрашных героев — принцесса Анна, отважный Кристофф и его верный олень Свен — отправляются в горы, чтобы найти сестру Анны, Эльзу, которая может снять со страны леденящее заклятие. По пути их ждет множество увлекательных сюрпризов и захватывающих приключений: встреча с мистическими троллями, знакомство с очаровательным снеговиком по имени Олаф, горные вершины покруче Эвереста и магия в каждой снежинке. Анне и Кристоффу предстоит сплотиться и противостоять могучей стихии, чтобы спасти королевство и тех, кто им дорог…


Официальный сайт

Выпущено: США, Walt Disney Animation Studios, Walt Disney Pictures
Продолжительность: 01:42:13
Перевод: Дублированный | Чистый звук

Файл
Кодек: H264
Качество: WEB-DLRip (AVC)
Видео: MPEG-4 AVC, 1873 Кбит/с, 1024x454
Звук: Русский (AC3, 2 ch, 384 Кбит/с), английский (AC3, 6 ch, 384 Кбит/с)

General
Unique ID : 226316168016905502483957726796349132213 (0xAA42E892AFFDD2F69503647878AF4DB5)
Complete name : C:Frozen.2013.D.WEB-DLRip.AVC.ExKinoRay.mkv
Format : Matroska
Format version : Version 2
File size : 1.89 GiB
Duration : 1h 42mn
Overall bit rate : 2 643 Kbps
Movie name : Frozen from ExKinoRay
Encoded date : UTC 2014-02-25 21:15:54
Writing application : mkvmerge v4.9.1 ('Ich will') built on Jul 11 2011 23:53:15
Writing library : libebml v1.2.1 + libmatroska v1.1.1

Video
ID : 1
Format : AVC
Format/Info : Advanced Video Codec
Format profile : High@L4.1
Format settings, CABAC : Yes
Format settings, ReFrames : 8 frames
Codec ID : V_MPEG4/ISO/AVC
Duration : 1h 42mn
Bit rate : 1 873 Kbps
Width : 1 024 pixels
Height : 454 pixels
Display aspect ratio : 2.25:1
Frame rate mode : Constant
Frame rate : 23.976 fps
Color space : YUV
Chroma subsampling : 4:2:0
Bit depth : 8 bits
Scan type : Progressive
Bits/(Pixel*Frame) : 0.168
Stream size : 1.30 GiB (69%)
Title : by Enigma
Writing library : x264 core 116 r2044 392e762
Encoding settings : cabac=1 / ref=8 / deblock=1:-2:-2 / analyse=0x3:0x113 / me=umh / subme=9 / psy=1 / psy_rd=1.00:0.20 / mixed_ref=1 / me_range=32 / chroma_me=1 / trellis=2 / 8x8dct=1 / cqm=0 / deadzone=21,11 / fast_pskip=0 / chroma_qp_offset=-3 / threads=12 / sliced_threads=0 / nr=0 / decimate=0 / interlaced=0 / bluray_compat=0 / constrained_intra=0 / bframes=8 / b_pyramid=2 / b_adapt=2 / b_bias=0 / direct=3 / weightb=1 / open_gop=0 / weightp=2 / keyint=240 / keyint_min=23 / scenecut=40 / intra_refresh=0 / rc_lookahead=50 / rc=2pass / mbtree=1 / bitrate=1873 / ratetol=1.0 / qcomp=0.60 / qpmin=0 / qpmax=69 / qpstep=4 / cplxblur=20.0 / qblur=0.5 / ip_ratio=1.40 / aq=1:1.00
Default : Yes
Forced : No

Audio #1
ID : 2
Format : AC-3
Format/Info : Audio Coding 3
Mode extension : CM (complete main)
Format settings, Endianness : Big
Codec ID : A_AC3
Duration : 1h 42mn
Bit rate mode : Constant
Bit rate : 384 Kbps
Channel(s) : 2 channels
Channel positions : Front: L R
Sampling rate : 48.0 KHz
Bit depth : 16 bits
Compression mode : Lossy
Stream size : 281 MiB (15%)
Title : Dub (line)
Language : Russian
Default : Yes
Forced : No

Audio #2
ID : 3
Format : AC-3
Format/Info : Audio Coding 3
Mode extension : CM (complete main)
Format settings, Endianness : Big
Codec ID : A_AC3
Duration : 1h 42mn
Bit rate mode : Constant
Bit rate : 384 Kbps
Channel(s) : 6 channels
Channel positions : Front: L C R, Side: L R, LFE
Sampling rate : 48.0 KHz
Bit depth : 16 bits
Compression mode : Lossy
Stream size : 281 MiB (15%)
Language : English
Default : No
Forced : No

Menu
00:00:00.000 : en:Opening Credits/Accident
00:06:00.000 : en:Concealing Her Powers
00:11:38.000 : en:Coronation Day
00:19:54.000 : en:Puppy Love
00:30:55.000 : en:The Search For Elsa
00:38:40.000 : en:A Ride
00:44:22.000 : en:Olaf
00:50:52.000 : en:Finding Elsa
00:57:49.000 : en:Snow Monster
01:02:58.000 : en:Family
01:09:37.000 : en:Discovered
01:13:35.000 : en:Betrayal
01:18:08.000 : en:What Is Love?
01:22:34.000 : en:An Act Of Love
01:27:11.000 : en:Open Gates
01:32:33.000 : en:End Credits






Релиз от:

Автор релиза:



   Похожие торренты   Торрент   Размер 
В этой теме нет новых непрочитанных сообщений. Холодное сердце / Frozen (2013) BDRip-AVC от ExKinoRay | Чистый звук

64 | 19

2.56 ГБ

В этой теме нет новых непрочитанных сообщений. Холодное сердце / Frozen (2013) WEB-DLRip | Чистый звук

173 | 4

1.46 ГБ

В этой теме нет новых непрочитанных сообщений. Холодное сердце / Frozen (2013) WEB-DLRip | Чистый звук

18 | 3

748.17 МБ

В этой теме нет новых непрочитанных сообщений. Холодное сердце / Frozen (2013) WEB-DLRip от Scarabey | D | Чистый звук

68 | 88

1.45 ГБ

В этой теме нет новых непрочитанных сообщений. Холодное сердце / Frozen (2013) WEB-DLRip от Scarabey | D | Чистый звук

107 | 37

747.92 МБ

В этой теме нет новых непрочитанных сообщений. Холодное сердце / Frozen (2013) DVDScr | Чистый звук

118 | 11

698.38 МБ

В этой теме нет новых непрочитанных сообщений. Холодное сердце / Frozen (2013) WEB-DL 720p | Чистый звук

287 | 10

3.33 ГБ




Вы не можете начинать темы
Вы не можете отвечать на сообщения
Вы не можете редактировать свои сообщения
Вы не можете удалять свои сообщения
Вы не можете добавлять вложения

Перейти:  
Для Мосгорсуда, Роскомнадзора и рекламодателей: mosgorsud-torrent[собачка]yandex.ru
 Вход
ppkBB3cker v.2 © 2008-2014 @ PPK
[ Time : 0.054s | 16 Queries | GZIP : Off ]

cron