img image001 image001 image001 image001 image001 image001 image001 image001 image001 image001 image001 image001 image001 image001 image001

Planets Sun Sun Sun
Статистика раздачи
Автор: Nickolas3434 | Размер: 325.6 МБ | Добавлен: 01 мар 2014
Раздают: 66    Качают: 8
Скачать торрент
Скачать торрент
Описание торрента

СообщениеДобавлено: 01 мар 2014 

«It's on in the Amazon»



Год выпуска: 2014
Производство: США / 20th Century Fox Animation, Blue Sky Studios
Жанр: Мультфильм, комедия, приключения, семейный
Перевод: Дублированный

Режиссер: Карлос Салдана
Продюсеры: Брюс Андерсон, Джон С. Донкин
В ролях: Энн Хэтэуэй, Лесли Манн, Джейми Фокс, Джесси Айзенберг, Джейк Т. Остин, Родриго Санторо, Джон Легуизамо, Кристин Ченоуэт, Джемейн Клемент

Описание фильма:
Голубчик, Жемчужинка и их трое детей живут счастливой жизнью в волшебном городе Рио-де-Жанейро. Когда Жемчужинка решает, что их детям нужно научиться жить как настоящим птицам, она настаивает на авантюрной поездке в дебри реки Амазонки. Там, пытаясь вписаться в новое окружение, Голубчик начинает беспокоиться, что может потерять Жемчужинку и детей, идущих на зов дикой природы.


Дата мировой премьеры: 20 марта 2014
Дата российской премьеры: 20 марта 2014, «Двадцатый Век Фокс СНГ» 3D


Продолжительность: 00:02:12
Качество видео: DCPrip 2K

Видео: MPEG-4 AVC, 2048x858, ~20,0 Мбит/сек
Аудио: AC3 5.1, 640 Кбит/сек [Русский]

Общее
Уникальный идентификатор : 254418512088744310650757634828754808238 (0xBF67391C055D6537A495EEDF170CEDAE)
Полное имя : C:VIDEORio 2 (2014) DCPrip 2K [трейлер].mkv
Формат : Matroska
Версия формата : Version 4 / Version 2
Размер файла : 326 Мбайт
Продолжительность : 2 м. 12 с.
Общий поток : 20,6 Мбит/сек
Дата кодирования : UTC 2013-10-29 01:43:11
Программа кодирования : mkvmerge v6.3.0 ('You can't stop me!') built on Jun 28 2013 20:09:41
Библиотека кодирования : libebml v1.3.0 + libmatroska v1.4.0

Видео
Идентификатор : 1
Формат : AVC
Формат/Информация : Advanced Video Codec
Профиль формата : High@L4.1
Параметр CABAC формата : Да
Параметр ReFrames формата : 4 кадра
Идентификатор кодека : V_MPEG4/ISO/AVC
Продолжительность : 2 м. 12 с.
Битрейт : 20,0 Мбит/сек
Ширина : 2048 пикселей
Высота : 858 пикселей
Соотношение сторон : 2,40:1
Режим частоты кадров : Постоянный
Частота кадров : 24,000 кадра/сек
Цветовое пространство : YUV
Субдискретизация насыщенности : 4:2:0
Битовая глубина : 8 бит
Тип развёртки : Прогрессивная
Бит/(Пиксели*Кадры) : 0.474
Размер потока : 309 Мбайт (95%)
Заголовок : Rio2_TLR-H-2D_S_RU-0_2K
Библиотека кодирования : x264 core 120
Настройки программы : cabac=1 / ref=3 / deblock=1:0:0 / analyse=0x3:0x113 / me=hex / subme=7 / psy=1 / psy_rd=1.00:0.00 / mixed_ref=1 / me_range=16 / chroma_me=1 / trellis=1 / 8x8dct=1 / cqm=0 / deadzone=21,11 / fast_pskip=1 / chroma_qp_offset=-2 / threads=12 / sliced_threads=0 / nr=0 / decimate=1 / interlaced=0 / bluray_compat=0 / constrained_intra=0 / bframes=3 / b_pyramid=2 / b_adapt=2 / b_bias=0 / direct=1 / weightb=1 / open_gop=0 / weightp=2 / keyint=240 / keyint_min=24 / scenecut=40 / intra_refresh=0 / rc_lookahead=50 / rc=2pass / mbtree=1 / bitrate=20000 / ratetol=1.0 / qcomp=0.60 / qpmin=3 / qpmax=69 / qpstep=4 / cplxblur=20.0 / qblur=0.5 / ip_ratio=1.40 / aq=1:1.00
Язык : Russian
Default : Да
Forced : Нет
Основные цвета : BT.709
Характеристики трансфера : BT.709
Коэффициенты матрицы : BT.709

Аудио
Идентификатор : 2
Формат : AC-3
Формат/Информация : Audio Coding 3
Расширение режима : CM (complete main)
Параметр Endianness формата : Big
Идентификатор кодека : A_AC3
Продолжительность : 2 м. 12 с.
Вид битрейта : Постоянный
Битрейт : 640 Кбит/сек
Каналы : 6 каналов
Расположение каналов : Front: L C R, Side: L R, LFE
Частота : 48,0 КГц
Битовая глубина : 16 бит
Метод сжатия : С потерями
Размер потока : 10,1 Мбайт (3%)
Заголовок : AC-3 5.1
Язык : Russian
Default : Да
Forced : Нет


Скриншоты:



   Похожие торренты   Торрент   Размер 
В этой теме нет новых непрочитанных сообщений. Вий (2014) DCPrip | Трейлер

222 | 31

1.01 ГБ

В этой теме нет новых непрочитанных сообщений. Владение 18 (2014) DCPrip | Трейлер

29 | 5

772.36 МБ

В этой теме нет новых непрочитанных сообщений. Рио 2 / Rio 2 (2014) DCPrip | 3D-Video | Трейлер

95 | 13

591.29 МБ

В этой теме нет новых непрочитанных сообщений. Годзилла / Godzilla (2014) DCPrip | Трейлер

37 | 3

836.67 МБ

В этой теме нет новых непрочитанных сообщений. Жажда скорости / Need for Speed (2014) DCPrip 2K | Трейлер

374 | 36

230.62 МБ

В этой теме нет новых непрочитанных сообщений. Грань будущего / Edge of Tomorrow (2014) DCPrip | Трейлер

900 | 101

1.29 ГБ

В этой теме нет новых непрочитанных сообщений. Любовь сквозь время / Winter's Tale (2014) DCPrip | Трейлер

67 | 6

795.42 МБ




Вы не можете начинать темы
Вы не можете отвечать на сообщения
Вы не можете редактировать свои сообщения
Вы не можете удалять свои сообщения
Вы не можете добавлять вложения

Перейти:  
Для Мосгорсуда, Роскомнадзора и рекламодателей: mosgorsud-torrent[собачка]yandex.ru
 Вход
ppkBB3cker v.2 © 2008-2014 @ PPK
[ Time : 0.020s | 14 Queries | GZIP : Off ]

Торрент трекер RUTOR.IN, Не можете зайти на rutor.org? Какой новый адрес рутор? Какое зеркало рутор? Не работает rutor.org и зеркала? Тогда наш торрент специально для вас. Rutor.in неофициальное зеркало rutor. В случае если у Вас заблокирован rutor или вдруг Вы не можете на него зайти, то Вы без труда сможете скачать бесплатно и без рекламы последние новинки кино, игр, сериалов и прочего у нас, на Rutor.in. Не нужно использовать прокси, чтобы зайти на рутор, достаточно воспользоваться нашим ресурсом. Все новые фильмы, игры, сериалы, книги и музыка за 2013 и 2014 годы через торрент бесплатно. Скачивайте фильмы в хорошем качестве, игры для пк, xbox, playstation без регистрации. У нас вы найдете новые Зарубежные сериалы и Русские сериалы 2013, 2014, 2015 годов. Оставайтесь с нами, качайте любимые фильмы, игры, сериалы, книги и музыку.