img image001 image001 image001 image001 image001 image001 image001 image001 image001 image001 image001 image001 image001 image001 image001

Planets Sun Sun Sun
Статистика раздачи
Автор: Nickolas3434 | Размер: 591.29 МБ | Добавлен: 01 мар 2014
Раздают: 95    Качают: 13
Скачать торрент
Скачать торрент
Описание торрента

СообщениеДобавлено: 01 мар 2014 

«It's on in the Amazon»



Год выпуска: 2014
Производство: США / 20th Century Fox Animation, Blue Sky Studios
Жанр: Мультфильм, комедия, приключения, семейный
Перевод: Дублированный

Режиссер: Карлос Салдана
Продюсеры: Брюс Андерсон, Джон С. Донкин
В ролях: Энн Хэтэуэй, Лесли Манн, Джейми Фокс, Джесси Айзенберг, Джейк Т. Остин, Родриго Санторо, Джон Легуизамо, Кристин Ченоуэт, Джемейн Клемент

Описание фильма:
Голубчик, Жемчужинка и их трое детей живут счастливой жизнью в волшебном городе Рио-де-Жанейро. Когда Жемчужинка решает, что их детям нужно научиться жить как настоящим птицам, она настаивает на авантюрной поездке в дебри реки Амазонки. Там, пытаясь вписаться в новое окружение, Голубчик начинает беспокоиться, что может потерять Жемчужинку и детей, идущих на зов дикой природы.


Дата мировой премьеры: 20 марта 2014
Дата российской премьеры: 20 марта 2014, «Двадцатый Век Фокс СНГ» 3D


Продолжительность: 00:02:19
Качество видео: DCPrip
Формат 3D: Half OverUnder / Вертикальная анаморфная стереопара
Порядок ракурсов: левый ракурс первый

Видео: MPEG-4 AVC, 1920x1080, ~35,0 Мбит/сек
Аудио: AC3 5.1, 640 Кбит/сек [Русский]

Общее
Уникальный идентификатор : 247722995566815895696303329989102376828 (0xBA5DB6A86E2DBB539158C380426B977C)
Полное имя : C:VIDEORio 2 (2014) DCPrip 3D-Video [трейлер].mkv
Формат : Matroska
Версия формата : Version 4 / Version 2
Размер файла : 591 Мбайт
Продолжительность : 2 м. 19 с.
Общий поток : 35,5 Мбит/сек
Дата кодирования : UTC 2013-10-29 10:10:06
Программа кодирования : mkvmerge v6.3.0 ('You can't stop me!') built on Jun 28 2013 20:09:41
Библиотека кодирования : libebml v1.3.0 + libmatroska v1.4.0

Видео
Идентификатор : 1
Формат : AVC
Формат/Информация : Advanced Video Codec
Профиль формата : High@L5.0
Параметр CABAC формата : Да
Параметр ReFrames формата : 4 кадра
Идентификатор кодека : V_MPEG4/ISO/AVC
Продолжительность : 2 м. 19 с.
Битрейт : 35,0 Мбит/сек
Ширина : 1920 пикселей
Высота : 1080 пикселей
Соотношение сторон : 16:9
Режим частоты кадров : Постоянный
Частота кадров : 24,000 кадра/сек
Цветовое пространство : YUV
Субдискретизация насыщенности : 4:2:0
Битовая глубина : 8 бит
Тип развёртки : Прогрессивная
Бит/(Пиксели*Кадры) : 0.703
Размер потока : 569 Мбайт (96%)
Заголовок : Rio2_TLR-H-3D_S_RU-0
Библиотека кодирования : x264 core 120
Настройки программы : cabac=1 / ref=3 / deblock=1:0:0 / analyse=0x3:0x113 / me=hex / subme=7 / psy=1 / psy_rd=1.00:0.00 / mixed_ref=1 / me_range=16 / chroma_me=1 / trellis=1 / 8x8dct=1 / cqm=0 / deadzone=21,11 / fast_pskip=1 / chroma_qp_offset=-2 / threads=12 / sliced_threads=0 / nr=0 / decimate=1 / interlaced=0 / bluray_compat=0 / constrained_intra=0 / bframes=3 / b_pyramid=2 / b_adapt=2 / b_bias=0 / direct=1 / weightb=1 / open_gop=0 / weightp=2 / keyint=240 / keyint_min=24 / scenecut=40 / intra_refresh=0 / rc_lookahead=50 / rc=2pass / mbtree=1 / bitrate=35000 / ratetol=1.0 / qcomp=0.60 / qpmin=3 / qpmax=69 / qpstep=4 / cplxblur=20.0 / qblur=0.5 / ip_ratio=1.40 / aq=1:1.00
Язык : Russian
Default : Да
Forced : Нет
Основные цвета : BT.709
Характеристики трансфера : BT.709
Коэффициенты матрицы : BT.709

Аудио
Идентификатор : 2
Формат : AC-3
Формат/Информация : Audio Coding 3
Расширение режима : CM (complete main)
Параметр Endianness формата : Big
Идентификатор кодека : A_AC3
Продолжительность : 2 м. 19 с.
Вид битрейта : Постоянный
Битрейт : 640 Кбит/сек
Каналы : 6 каналов
Расположение каналов : Front: L C R, Side: L R, LFE
Частота : 48,0 КГц
Битовая глубина : 16 бит
Метод сжатия : С потерями
Размер потока : 10,7 Мбайт (2%)
Заголовок : AC-3 5.1
Язык : Russian
Default : Да
Forced : Нет


Скриншоты:



   Похожие торренты   Торрент   Размер 
В этой теме нет новых непрочитанных сообщений. Хоббит: Битва пяти воинств / The Hobbit: The Battle of the Five Armies (2014) DCPrip | 3D-Video 2K | Трейлер

434 | 109

372.18 МБ

В этой теме нет новых непрочитанных сообщений. Варкрафт / Warcraft (2016) DCPRip | 3D-Video | halfOU | Трейлер

255 | 39

648.39 МБ

В этой теме нет новых непрочитанных сообщений. Хоббит: Пустошь Смауга / The Hobbit: The Desolation of Smaug (2013) DCPrip | 3D-Video | Трейлер

11 | 2

619.82 МБ

В этой теме нет новых непрочитанных сообщений. Вий (2014) DCPrip | Трейлер

222 | 31

1.01 ГБ

В этой теме нет новых непрочитанных сообщений. Рио 2 / Rio 2 (2014) DCPrip | 2K | Трейлер

66 | 8

325.6 МБ

В этой теме нет новых непрочитанных сообщений. Владение 18 (2014) DCPrip | Трейлер

29 | 5

772.36 МБ

В этой теме нет новых непрочитанных сообщений. Годзилла / Godzilla (2014) DCPrip | Трейлер

37 | 3

836.67 МБ




Вы не можете начинать темы
Вы не можете отвечать на сообщения
Вы не можете редактировать свои сообщения
Вы не можете удалять свои сообщения
Вы не можете добавлять вложения

Перейти:  
Для Мосгорсуда, Роскомнадзора и рекламодателей: mosgorsud-torrent[собачка]yandex.ru
 Вход
ppkBB3cker v.2 © 2008-2014 @ PPK
[ Time : 0.040s | 15 Queries | GZIP : Off ]

cron