img image001 image001 image001 image001 image001 image001 image001 image001 image001 image001 image001 image001 image001 image001 image001

Planets Sun Sun Sun
Статистика раздачи
Автор: Nickolas3434 | Размер: 5.7 ГБ | Добавлен: 03 мар 2014
Раздают: 305    Качают: 13
Скачать торрент
Скачать торрент
Описание торрента

СообщениеДобавлено: 03 мар 2014 


Информация о фильме
    Русское название: Холодное сердце
    Оригинальное название: Frozen
    Год выхода: 2013
    Жанр: Комедия, приключения, семейный, фэнтези
    Режиссер: Крис Бак, Дженнифер Ли
    Выпущено: США
    Продолжительность: 01:42:13
    Перевод: Дублированный
    Роли озвучивали: Кристен Белл, Идина Мензел, Джонатан Грофф, Джош Гад, Сантино Фонтана, Алан Тьюдик, Киаран Хайндс, Крис Уильямс, Стивен Дж. Андерсон, Майа Уилсон


Сюжет фильма
    Когда древнее предсказание сбывается и королевство погружается в объятия вечной зимы, трое бесстрашных героев — принцесса Анна, отважный Кристофф и его верный олень Свен — отправляются в горы, чтобы найти сестру Анны, Эльзу, которая может снять со страны леденящее заклятие. По пути их ждет множество увлекательных сюрпризов и захватывающих приключений: встреча с мистическими троллями, знакомство с очаровательным снеговиком по имени Олаф, горные вершины покруче Эвереста и магия в каждой снежинке. Анне и Кристоффу предстоит сплотиться и противостоять могучей стихии, чтобы спасти королевство и тех, кто им дорог…


Файл
    Качество: BDRip 1080p (исходник Blu-ray Disc)
    Видео: 1920x856, 6974 Кбит/сек, 23,976 кадр/сек, AVC, x264, High@L4.1, 2.25:1, 0.177 Бит/[Пиксели*Кадры], 2pass
    Аудио 1: AC-3, 384 Кбит/сек, 2 канала(ов), 48,0 КГц - Дублированный (Чистый звук) / Русский
    Аудио 2: AC-3, 640 Кбит/сек, 6 канала(ов), 48,0 КГц - Оригинал / Английский
    Субтитры: Русские | Полные, Английские | Полные
    Чаптеры (Главы): Есть



Автор Рипа: Сообщество:


]

Format : Matroska
Format version : Version 2
File size : 5.70 GiB
Duration : 1h 42mn
Overall bit rate : 7 987 Kbps
Movie name : Холодное сердце.(2013).BDRip.1080p.[envy]
Encoded date : UTC 2014-03-02 18:17:36
Writing application : mkvmerge v5.8.0 ('No Sleep / Pillow') built on Sep 2 2012 15:37:04
Writing library : libebml v1.2.3 + libmatroska v1.3.0

Video
ID : 1
Format : AVC
Format/Info : Advanced Video Codec
Format profile : High@L4.1
Format settings, CABAC : Yes
Format settings, ReFrames : 5 frames
Codec ID : V_MPEG4/ISO/AVC
Duration : 1h 42mn
Bit rate : 6 974 Kbps
Width : 1 920 pixels
Height : 856 pixels
Display aspect ratio : 2.25:1
Frame rate mode : Constant
Frame rate : 23.976 fps
Color space : YUV
Chroma subsampling : 4:2:0
Bit depth : 8 bits
Scan type : Progressive
Bits/(Pixel*Frame) : 0.177
Stream size : 4.86 GiB (85%)
Title : Холодное сердце.(2013).BDRip.1080p.[envy]
Writing library : x264 core 140 r2377 1ca7bb9
Encoding settings : cabac=1 / ref=5 / deblock=1:-1:-1 / analyse=0x3:0x133 / me=umh / subme=11 / psy=1 / psy_rd=1.00:0.00 / mixed_ref=1 / me_range=48 / chroma_me=1 / trellis=2 / 8x8dct=1 / cqm=0 / deadzone=21,11 / fast_pskip=0 / chroma_qp_offset=-2 / threads=12 / lookahead_threads=2 / sliced_threads=0 / nr=0 / decimate=1 / interlaced=0 / bluray_compat=0 / constrained_intra=0 / bframes=7 / b_pyramid=2 / b_adapt=2 / b_bias=0 / direct=3 / weightb=1 / open_gop=0 / weightp=2 / keyint=240 / keyint_min=23 / scenecut=40 / intra_refresh=0 / rc=2pass / mbtree=0 / bitrate=6974 / ratetol=2.0 / qcomp=0.60 / qpmin=0 / qpmax=69 / qpstep=4 / cplxblur=20.0 / qblur=0.5 / ip_ratio=1.40 / pb_ratio=1.30 / aq=2:0.80
Language : English
Default : Yes
Forced : No

Audio #1
ID : 2
Format : AC-3
Format/Info : Audio Coding 3
Mode extension : CM (complete main)
Format settings, Endianness : Big
Codec ID : A_AC3
Duration : 1h 42mn
Bit rate mode : Constant
Bit rate : 384 Kbps
Channel count : 2 channels
Channel positions : Front: L R
Sampling rate : 48.0 KHz
Bit depth : 16 bits
Compression mode : Lossy
Stream size : 281 MiB (5%)
Title : dub
Language : Russian
Default : Yes
Forced : No

Audio #2
ID : 3
Format : AC-3
Format/Info : Audio Coding 3
Mode extension : CM (complete main)
Format settings, Endianness : Big
Codec ID : A_AC3
Duration : 1h 42mn
Bit rate mode : Constant
Bit rate : 640 Kbps
Channel count : 6 channels
Channel positions : Front: L C R, Side: L R, LFE
Sampling rate : 48.0 KHz
Bit depth : 16 bits
Compression mode : Lossy
Stream size : 468 MiB (8%)
Title : Eng
Language : English
Default : No
Forced : No

Text #1
ID : 4
Format : UTF-8
Codec ID : S_TEXT/UTF8
Codec ID/Info : UTF-8 Plain Text
Title : rus full
Language : Russian
Default : No
Forced : No

Text #2
ID : 5
Format : UTF-8
Codec ID : S_TEXT/UTF8
Codec ID/Info : UTF-8 Plain Text
Title : eng full
Language : English
Default : No
Forced : No

Menu
00:00:00.000 : :Chapter 01
00:05:59.817 : :Chapter 02
00:11:37.946 : :Chapter 03
00:19:53.734 : :Chapter 04
00:31:03.194 : :Chapter 05
00:38:39.483 : :Chapter 06
00:44:21.283 : :Chapter 07
00:50:51.506 : :Chapter 08
00:57:48.381 : :Chapter 09
01:02:57.398 : :Chapter 10
01:09:36.046 : :Chapter 11
01:13:34.868 : :Chapter 12
01:18:07.599 : :Chapter 13
01:22:33.740 : :Chapter 14
01:27:10.808 : :Chapter 15
01:32:33.506 : :Chapter 16
01:42:12.793 : :Chapter 17


При поддержке:

С появлением лицензии раздача будет обновлена!



   Похожие торренты   Торрент   Размер 
В этой теме нет новых непрочитанных сообщений. Холодное сердце / Frozen (2013) BDRip 1080p от Ash61 | 3D-Video | halfOU | Чистый звук

409 | 85

5.59 ГБ

В этой теме нет новых непрочитанных сообщений. Холодное сердце / Frozen (2013) Blu-Ray Remux 1080p | Чистый звук

56 | 11

22.83 ГБ

В этой теме нет новых непрочитанных сообщений. Холодное сердце / Frozen (2013) BDRip-AVC от ExKinoRay | Чистый звук

64 | 19

2.56 ГБ

В этой теме нет новых непрочитанных сообщений. Холодное сердце / Frozen (2013) BDRip-AVC от MediaClub | Чистый звук

2514 | 89

1.79 ГБ

В этой теме нет новых непрочитанных сообщений. Холодное сердце / Frozen (2013) BDRip-AVC от Leonardo and Scarabey | Чистый звук

85 | 40

1.71 ГБ

В этой теме нет новых непрочитанных сообщений. Холодное сердце / Frozen (2013) BDRip 720p от Leonardo and Scarabey | Чистый звук

290 | 62

2.52 ГБ

В этой теме нет новых непрочитанных сообщений. Холодное сердце / Frozen (2013) DVDScr | Чистый звук

118 | 11

698.38 МБ




Вы не можете начинать темы
Вы не можете отвечать на сообщения
Вы не можете редактировать свои сообщения
Вы не можете удалять свои сообщения
Вы не можете добавлять вложения

Перейти:  
Для Мосгорсуда, Роскомнадзора и рекламодателей: mosgorsud-torrent[собачка]yandex.ru
 Вход
ppkBB3cker v.2 © 2008-2014 @ PPK
[ Time : 0.083s | 15 Queries | GZIP : Off ]

Торрент трекер RUTOR.IN, Не можете зайти на rutor.org? Какой новый адрес рутор? Какое зеркало рутор? Не работает rutor.org и зеркала? Тогда наш торрент специально для вас. Rutor.in неофициальное зеркало rutor. В случае если у Вас заблокирован rutor или вдруг Вы не можете на него зайти, то Вы без труда сможете скачать бесплатно и без рекламы последние новинки кино, игр, сериалов и прочего у нас, на Rutor.in. Не нужно использовать прокси, чтобы зайти на рутор, достаточно воспользоваться нашим ресурсом. Все новые фильмы, игры, сериалы, книги и музыка за 2013 и 2014 годы через торрент бесплатно. Скачивайте фильмы в хорошем качестве, игры для пк, xbox, playstation без регистрации. У нас вы найдете новые Зарубежные сериалы и Русские сериалы 2013, 2014, 2015 годов. Оставайтесь с нами, качайте любимые фильмы, игры, сериалы, книги и музыку.