img image001 image001 image001 image001 image001 image001 image001 image001 image001 image001 image001 image001 image001 image001 image001

Planets Sun Sun Sun
Статистика раздачи
Автор: Nickolas3434 | Размер: 746.98 МБ | Добавлен: 06 мар 2014
Раздают: 138    Качают: 20
Скачать торрент
Скачать торрент
Описание торрента

СообщениеДобавлено: 06 мар 2014 

Информация о фильме
Название: Дитер - Фильм
Оригинальное название: Dieter - Der Film / Dieter
Год выхода: 2006
Жанр: мультфильм, комедия, биография
Режиссер: Тоби Генкель, Михаэль Шаак
В ролях: Bertram Hiese, Антония фон Роматовский, Susanna Clasen, Роберт Мисслер, Марек Эрхардт, Каролин Шпис, Harry Wijnvoord, Ruth Rockenschaub, Stephanie Kukielka, Jan-David Rönfeldt

О фильме:
Став самым популярным человеком Германии в 2004 году, основатель легендарных групп «Modern Talking» и «Blue System», Дитер Болен, увековечил историю своего восхождения на столь почётный пост анимационным фильмом, вкратце рассказывающем его историю.



Страна: Германия
Студия: TFC Trickompany Filmproduktion, RTL
Продолжительность: 01:26:07
Перевод: Любительский (двухголосый закадровый)

Цитатаxfiles писал:
Перевод выполнен силами русского фан-сайта группы Modern Talking.
Хоть немцы и пишут, что ограничение по возрасту - старше 6 лет, мое мнение - 6 - маловато. Мультфильм явно не детский. Смотрите скрины.

Файл
Качество: DVDRip
Видео: XviD 64, 624x352 (16:9), 25.000 fps, 1075 Kbps
Звук: MP3, 2 ch, 48.0 kHz, 128 Kbps, CBR
Субтитры: русские (форсированные) | Отдельно

SAMPLE

Релиз от: by xfiles

Общее
Полное имя : Dieter-Der Film.avi
Формат : AVI
Формат/Информация : Audio Video Interleave
Размер файла : 747 Мбайт
Продолжительность : 1 ч. 26 м.
Общий поток : 1213 Кбит/сек
Название фильма : Dieter - Der Film
Режиссёр : Toby Genkel, Michael Schaack
Жанр : Comedy
Программа кодирования : VirtualDubMod 1.5.10.2 (build 2542/release)
Формат оригинала/Имя : Cartoon
Правообладатель : 2006 TFC Trickompany Filmproduktion, RTL
Примечание : DVDRip / xfiles / RG Multfilmy

Видео
Идентификатор : 0
Формат : MPEG-4 Visual
Профиль формата : Advanced Simple@L5
Параметр BVOP формата : 1
Параметр QPel формата : Нет
Параметр GMC формата : Без точки перехода
Параметр матрицы формата : Выборочная
Идентификатор кодека : DX50
Идентификатор кодека/Подсказка : DivX 5
Продолжительность : 1 ч. 26 м.
Битрейт : 1075 Кбит/сек
Ширина : 624 пикселя
Высота : 352 пикселя
Соотношение сторон : 5:4
Соотношение сторон в оригинале : 16:9
Частота кадров : 25,000 кадров/сек
Цветовое пространство : YUV
Субдискретизация насыщенности : 4:2:0
Битовая глубина : 8 бит
Тип развёртки : Прогрессивная
Метод сжатия : С потерями
Бит/(Пиксели*Кадры) : 0.196
Размер потока : 662 Мбайт (89%)
Библиотека кодирования : XviD 64

Аудио
Идентификатор : 1
Формат : MPEG Audio
Версия формата : Version 1
Профиль формата : Layer 3
Идентификатор кодека : 55
Идентификатор кодека/Подсказка : MP3
Продолжительность : 1 ч. 26 м.
Вид битрейта : Постоянный
Битрейт : 128 Кбит/сек
Каналы : 2 канала
Частота : 48,0 КГц
Метод сжатия : С потерями
Размер потока : 78,8 Мбайт (11%)
Выравнивание : Соединение по промежуткам
Продолжительность промежутка : 40 мс. (1,00 видеокадр)
Время предзагрузки промежутка : 504 мс.



   Похожие торренты   Торрент   Размер 
В этой теме нет новых непрочитанных сообщений. Дитер Болен / Dieter - der Film (2006) DVDRip

3 | 5

773.53 МБ

В этой теме нет новых непрочитанных сообщений. Dieter Bohlen - Золотая Коллекция (2011) MP3

219 | 15

377.44 МБ

В этой теме нет новых непрочитанных сообщений. Dieter Bohlen - Greatest Hits (2002) FLAC

9 | 5

516.76 МБ

В этой теме нет новых непрочитанных сообщений. Dieter Birr - Maschine (2014) MP3 от BestSound ExKinoRay

70 | 11

99.45 МБ

В этой теме нет новых непрочитанных сообщений. Ze фильм / Ze film (2005) DVDRip от wkot76

4 | 4

1.46 ГБ

В этой теме нет новых непрочитанных сообщений. Фильм с моим участием / A Film with Me in It (2008) DVDRip

0 | 2

1.43 ГБ

В этой теме нет новых непрочитанных сообщений. Укради этот фильм 2 / Steal This Film II (2007) DVDRip

2 | 1

679.76 МБ




Вы не можете начинать темы
Вы не можете отвечать на сообщения
Вы не можете редактировать свои сообщения
Вы не можете удалять свои сообщения
Вы не можете добавлять вложения

Перейти:  
Для Мосгорсуда, Роскомнадзора и рекламодателей: mosgorsud-torrent[собачка]yandex.ru
 Вход
ppkBB3cker v.2 © 2008-2014 @ PPK
[ Time : 0.030s | 16 Queries | GZIP : Off ]

Торрент трекер RUTOR.IN, Не можете зайти на rutor.org? Какой новый адрес рутор? Какое зеркало рутор? Не работает rutor.org и зеркала? Тогда наш торрент специально для вас. Rutor.in неофициальное зеркало rutor. В случае если у Вас заблокирован rutor или вдруг Вы не можете на него зайти, то Вы без труда сможете скачать бесплатно и без рекламы последние новинки кино, игр, сериалов и прочего у нас, на Rutor.in. Не нужно использовать прокси, чтобы зайти на рутор, достаточно воспользоваться нашим ресурсом. Все новые фильмы, игры, сериалы, книги и музыка за 2013 и 2014 годы через торрент бесплатно. Скачивайте фильмы в хорошем качестве, игры для пк, xbox, playstation без регистрации. У нас вы найдете новые Зарубежные сериалы и Русские сериалы 2013, 2014, 2015 годов. Оставайтесь с нами, качайте любимые фильмы, игры, сериалы, книги и музыку.