img image001 image001 image001 image001 image001 image001 image001 image001 image001 image001 image001 image001 image001 image001 image001

Planets Sun Sun Sun
Статистика раздачи
Автор: Nickolas3434 | Размер: 9.85 ГБ | Добавлен: 08 мар 2014
Раздают: 708    Качают: 76
Скачать торрент
Скачать торрент
Описание торрента

СообщениеДобавлено: 08 мар 2014 


Информация о фильме
    Русское название: Семейка Крудс
    Оригинальное название: The Croods
    Год выхода: 2013
    Жанр: Фэнтези, комедия, приключения, семейный
    Режиссер: Кирк де Микко
    Выпущено: США
    Продолжительность: 01:38:36
    Перевод: Дублированный, Авторский (Ю.Сербин), Авторский (Л.Володарский)
    Роли озвучивали: Николас Кейдж, Эмма Стоун, Райан Рейнольдс, Кэтрин Кинер, Клорис Личмен, Кларк Дьюк, Крис Сандерс


Сюжет фильма
    Землетрясение уничтожило дом доисторической семьи, и теперь Крудсам придётся искать другое пристанище. А вокруг новый и опасный мир! Им на помощь приходит молодой кочевник Малой, передовые взгляды которого наталкиваются на консервативность главы семьи Груга. Но только вместе они смогут выжить и достичь своей цели...


Файл
    Качество: BDRip 1080p (исходник Blu-ray Disc)
    Видео: 1920x816, 12321 Кбит/сек, 59.940 кадр/сек, AVC, x264, High@L4.1, 2.40:1, 0.131 Бит/[Пиксели*Кадры], 2pass
    Аудио 1: AC-3, 448 Кбит/сек, 6 канала(ов), 48,0 КГц - Дублированный / Русский
    Аудио 2: AC-3, 448 Кбит/сек, 6 канала(ов), 48,0 КГц - Одноголосый закадровый, Ю.Сербин / Русский
    Аудио 3: AC-3, 448 Кбит/сек, 6 канала(ов), 48,0 КГц - Одноголосый закадровый, Л.Володарский / Русский
    Аудио 4: AC-3, 640 Кбит/сек, 6 канала(ов), 48,0 КГц - Оригинал / Английский
    Субтитры: Русские | Полные, Английские | Полные
    Чаптеры (Главы): Есть



Автор Рипа: Сообщество:



Format : Matroska
Format version : Version 2
File size : 9.85 GiB
Duration : 1h 38mn
Overall bit rate : 14.3 Mbps
Movie name : Семейка Крудс.(2013).BDRip.1080p.[envy].[60fps]
Encoded date : UTC 2014-03-07 12:48:33
Writing application : mkvmerge v5.8.0 ('No Sleep / Pillow') built on Sep 2 2012 15:37:04
Writing library : libebml v1.2.3 + libmatroska v1.3.0

Video
ID : 1
Format : AVC
Format/Info : Advanced Video Codec
Format profile : High@L4.1
Format settings, CABAC : Yes
Format settings, ReFrames : 5 frames
Codec ID : V_MPEG4/ISO/AVC
Duration : 1h 38mn
Bit rate : 12.3 Mbps
Width : 1 920 pixels
Height : 816 pixels
Display aspect ratio : 2.35:1
Frame rate mode : Constant
Frame rate : 59.880 fps
Original frame rate : 59.940 fps
Color space : YUV
Chroma subsampling : 4:2:0
Bit depth : 8 bits
Scan type : Progressive
Bits/(Pixel*Frame) : 0.131
Stream size : 8.29 GiB (84%)
Title : Семейка Крудс.(2013).BDRip.1080p.[envy].[60fps]
Writing library : x264 core 140 r2377 1ca7bb9
Encoding settings : cabac=1 / ref=5 / deblock=1:0:0 / analyse=0x3:0x133 / me=umh / subme=11 / psy=1 / psy_rd=1.00:0.00 / mixed_ref=1 / me_range=32 / chroma_me=1 / trellis=2 / 8x8dct=1 / cqm=0 / deadzone=21,11 / fast_pskip=0 / chroma_qp_offset=-2 / threads=12 / lookahead_threads=1 / sliced_threads=0 / nr=0 / decimate=1 / interlaced=0 / bluray_compat=0 / constrained_intra=0 / bframes=5 / b_pyramid=2 / b_adapt=2 / b_bias=0 / direct=3 / weightb=1 / open_gop=0 / weightp=2 / keyint=250 / keyint_min=25 / scenecut=40 / intra_refresh=0 / rc=2pass / mbtree=0 / bitrate=12321 / ratetol=2.0 / qcomp=0.60 / qpmin=0 / qpmax=69 / qpstep=4 / cplxblur=20.0 / qblur=0.5 / ip_ratio=1.40 / pb_ratio=1.30 / aq=2:0.90
Language : English
Default : Yes
Forced : No

Audio #1
ID : 2
Format : AC-3
Format/Info : Audio Coding 3
Mode extension : CM (complete main)
Format settings, Endianness : Big
Codec ID : A_AC3
Duration : 1h 38mn
Bit rate mode : Constant
Bit rate : 448 Kbps
Channel count : 6 channels
Channel positions : Front: L C R, Side: L R, LFE
Sampling rate : 48.0 KHz
Bit depth : 16 bits
Compression mode : Lossy
Stream size : 316 MiB (3%)
Title : Dub
Language : Russian
Default : No
Forced : No

Audio #2
ID : 3
Format : AC-3
Format/Info : Audio Coding 3
Mode extension : CM (complete main)
Format settings, Endianness : Big
Codec ID : A_AC3
Duration : 1h 38mn
Bit rate mode : Constant
Bit rate : 448 Kbps
Channel count : 2 channels
Channel positions : Front: L R
Sampling rate : 48.0 KHz
Bit depth : 16 bits
Compression mode : Lossy
Stream size : 316 MiB (3%)
Title : Serbin
Language : Russian
Default : No
Forced : No

Audio #3
ID : 4
Format : AC-3
Format/Info : Audio Coding 3
Mode extension : CM (complete main)
Format settings, Endianness : Big
Codec ID : A_AC3
Duration : 1h 38mn
Bit rate mode : Constant
Bit rate : 448 Kbps
Channel count : 6 channels
Channel positions : Front: L C R, Side: L R, LFE
Sampling rate : 48.0 KHz
Bit depth : 16 bits
Compression mode : Lossy
Stream size : 316 MiB (3%)
Title : Volodarskij
Language : Russian
Default : No
Forced : No

Audio #4
ID : 5
Format : AC-3
Format/Info : Audio Coding 3
Mode extension : CM (complete main)
Format settings, Endianness : Big
Codec ID : A_AC3
Duration : 1h 38mn
Bit rate mode : Constant
Bit rate : 640 Kbps
Channel count : 6 channels
Channel positions : Front: L C R, Side: L R, LFE
Sampling rate : 48.0 KHz
Bit depth : 16 bits
Compression mode : Lossy
Stream size : 451 MiB (4%)
Title : Eng
Language : English
Default : No
Forced : No

Text #1
ID : 6
Format : UTF-8
Codec ID : S_TEXT/UTF8
Codec ID/Info : UTF-8 Plain Text
Title : rus full
Language : Russian
Default : No
Forced : No

Text #2
ID : 7
Format : UTF-8
Codec ID : S_TEXT/UTF8
Codec ID/Info : UTF-8 Plain Text
Title : eng full
Language : English
Default : No
Forced : No

Menu
00:00:00.000 : :Chapter 01
00:02:34.988 : :Chapter 02
00:04:51.749 : :Chapter 03
00:09:01.249 : :Chapter 04
00:12:21.115 : :Chapter 05
00:14:04.802 : :Chapter 06
00:18:33.028 : :Chapter 07
00:21:56.982 : :Chapter 08
00:23:24.736 : :Chapter 09
00:26:49.774 : :Chapter 10
00:28:37.132 : :Chapter 11
00:30:25.657 : :Chapter 12
00:32:48.633 : :Chapter 13
00:36:03.369 : :Chapter 14
00:38:33.561 : :Chapter 15
00:41:34.533 : :Chapter 16
00:44:38.842 : :Chapter 17
00:48:02.629 : :Chapter 18
00:52:10.961 : :Chapter 19
00:55:17.480 : :Chapter 20
01:00:14.777 : :Chapter 21
01:03:58.084 : :Chapter 22
01:05:48.736 : :Chapter 23
01:08:44.036 : :Chapter 24
01:10:47.284 : :Chapter 25
01:12:37.144 : :Chapter 26
01:14:01.645 : :Chapter 27
01:19:48.575 : :Chapter 28
01:23:09.859 : :Chapter 29
01:25:16.736 : :Chapter 30
01:28:04.320 : :Chapter 31
01:30:02.230 : :Chapter 32


При поддержке:


Прежде чем скачивать фильм полностью, скачайте "сэмпл", и проверьте будет ли воспроизводится видео на вашем устройстве!

Q: Присутствуют ли артефакты на изображении?
A: Да, есть, и будут, какие настройки кодека не вписывай они будут постоянно! хоть они и обработаны фильтром "Sharp", но они выглядят вполне смотрибельно.
Пример:


Q: У меня не запускается видео на компьютере.
A: Обновите кодеки. (попробуйте другие видео проигрыватели)

Q: Что нужно для воспроизведения данного видео.
A: Что рекомендуется для воспроизведения:
Процессор: рекомендую 4х ядерный
Видео карта: минимум 512Мб. И желательно включить обработку изображения с помощью видео карты. (Деинтерлейсинг, подавление блочности и т.д.)
ОЗУ: 2Гб

Проигрыватели.
MPC-HC (Media Player Classic - Home Cinema)
The KMPlayer (Korean Multimedia Player) (оптимальный вариант)
Mirillis Splash PRO (Если что то проигрыватель сам может преобразовывать видео вплоть до частоты кадров монитора. Или тех же 60fps.)

^Прежде чем отписывать комментарии по качеству, прочитайте спойлер!

Внимание: Данные фильмы делаются (кому нужно знает где) с обязательным указанием ||60FPS|| !



   Похожие торренты   Торрент   Размер 
В этой теме нет новых непрочитанных сообщений. Семейка Крудс / The Croods (2013) BDRemux 1080p | Лицензия

62 | 22

19.55 ГБ

В этой теме нет новых непрочитанных сообщений. Семейка Крудс / The Croods (2013) BDRip-AVC | D, A

154 | 13

3.1 ГБ

В этой теме нет новых непрочитанных сообщений. Семейка Крудс / The Croods (2013) BDRip

1761 | 94

2.19 ГБ

В этой теме нет новых непрочитанных сообщений. Семейка Крудс / The Croods (2013) BDRip-AVC | iPhone

570 | 20

1.51 ГБ

В этой теме нет новых непрочитанных сообщений. Семейка Крудс / The Croods (2013) HDRip-AVC | D

33 | 5

746.87 МБ

В этой теме нет новых непрочитанных сообщений. Семейка Крудс / The Croods (2013) DVDRip от -=HD-NET=-| КПК | D | Лицензия

204 | 10

441.15 МБ

В этой теме нет новых непрочитанных сообщений. Семейка Крудс / The Croods (2013) HDRip | Трейлер

82 | 4

107.33 МБ




Вы не можете начинать темы
Вы не можете отвечать на сообщения
Вы не можете редактировать свои сообщения
Вы не можете удалять свои сообщения
Вы не можете добавлять вложения

Перейти:  
Для Мосгорсуда, Роскомнадзора и рекламодателей: mosgorsud-torrent[собачка]yandex.ru
 Вход
ppkBB3cker v.2 © 2008-2014 @ PPK
[ Time : 0.066s | 16 Queries | GZIP : Off ]

cron