img image001 image001 image001 image001 image001 image001 image001 image001 image001 image001 image001 image001 image001 image001 image001

Planets Sun Sun Sun
Статистика раздачи
Автор: Nickolas3434 | Размер: 1.45 ГБ | Добавлен: 08 мар 2014
Раздают: 288    Качают: 51
Скачать торрент
Скачать торрент
Описание торрента

СообщениеДобавлено: 08 мар 2014 

Информация о фильме
Название: Властелины времени
Оригинальное название: Les maîtres du temps
Год выхода: 1982
Жанр: мультфильм, фантастика, драма, детектив
Режиссер: Рене Лалу
В ролях: Жан Вальмонт, Мишель Елиас, Фридерик ЛеГрос, Ив-Мари Морен, Моника Тьерри, Сади Реббо, Патрик Боджин, Пьер Тоурнер, Ален Кюни, Ив Брэнвиль

О фильме: Пьель, 7-летний мальчик, попал в пустыню планеты Пердиде, уцелев после атаки гигантских ос. На вызов о помощи откликнулся друг его отца Джаффар. Он держит контакт с ребенком и спешит через пространство к Пердиде…

Джаффар еще не знает, что ему придется столкнуться с Властелинами Времени и спасать нужно будет не только ребенка, но и его родную планету…



Выпущено: Télécip, TF1 Films Production
Продолжительность: 01:15:10
Перевод: Дублированный

Файл
Кодек: x264
Качество: DVDRip-AVC
Видео: 960x576 (1,667), 25 fps, 1870 kbps
Аудио #1: AC-3, 6 ch, 448 kbps (Rus)
Аудио #2: AC-3, 6 ch, 448 kbps (Fre)
Субтитры: Русские
Скачать: сэмпл

Скриншоты

Общее
Уникальный идентификатор : 203983035072235450825380487693866725594 (0x9975B41B262572B181DA6DB33BD970DA)
Полное имя : Time.Masters.1982.DVDRip.AVC.Rus.Fre.mkv
Формат : Matroska
Версия формата : Version 2
Размер файла : 1,45 Гбайт
Продолжительность : 1 ч. 15 м.
Общий поток : 2769 Кбит/сек
Название фильма : Властелины времени / Les maîtres du temps (1982)
Дата кодирования : UTC 2014-03-07 15:05:22
Программа кодирования : mkvmerge v5.8.0 ('No Sleep / Pillow') built on Sep 2 2012 15:37:04
Библиотека кодирования : libebml v1.2.3 + libmatroska v1.3.0

Видео
Идентификатор : 1
Формат : AVC
Формат/Информация : Advanced Video Codec
Профиль формата : High@L4.1
Параметр CABAC формата : Да
Параметр ReFrames формата : 11 кадров
Идентификатор кодека : V_MPEG4/ISO/AVC
Продолжительность : 1 ч. 15 м.
Битрейт : 1870 Кбит/сек
Ширина : 960 пикселей
Высота : 576 пикселей
Соотношение сторон : 1,667
Режим частоты кадров : Постоянный
Частота кадров : 25,000 кадров/сек
Цветовое пространство : YUV
Субдискретизация насыщенности : 4:2:0
Битовая глубина : 8 бит
Тип развёртки : Прогрессивная
Бит/(Пиксели*Кадры) : 0.135
Размер потока : 977 Мбайт (66%)
Библиотека кодирования : x264 core 142 r2389 956c8d8
Настройки программы : cabac=1 / ref=11 / deblock=1:1:1 / analyse=0x3:0x133 / me=tesa / subme=9 / psy=1 / psy_rd=1.00:0.00 / mixed_ref=1 / me_range=32 / chroma_me=1 / trellis=2 / 8x8dct=1 / cqm=0 / deadzone=21,11 / fast_pskip=0 / chroma_qp_offset=-2 / threads=12 / lookahead_threads=2 / sliced_threads=0 / nr=0 / decimate=1 / interlaced=0 / bluray_compat=0 / constrained_intra=0 / bframes=9 / b_pyramid=2 / b_adapt=2 / b_bias=0 / direct=3 / weightb=1 / open_gop=0 / weightp=2 / keyint=250 / keyint_min=25 / scenecut=40 / intra_refresh=0 / rc=2pass / mbtree=0 / bitrate=1870 / ratetol=1.0 / qcomp=0.60 / qpmin=0 / qpmax=69 / qpstep=4 / cplxblur=20.0 / qblur=0.5 / ip_ratio=1.40 / pb_ratio=1.30 / aq=1:1.50
Язык : French
Default : Да
Forced : Нет

Аудио #1
Идентификатор : 2
Формат : AC-3
Формат/Информация : Audio Coding 3
Расширение режима : CM (complete main)
Параметр Endianness формата : Big
Идентификатор кодека : A_AC3
Продолжительность : 1 ч. 15 м.
Вид битрейта : Постоянный
Битрейт : 448 Кбит/сек
Каналы : 6 каналов
Расположение каналов : Front: L C R, Side: L R, LFE
Частота : 48,0 КГц
Битовая глубина : 16 бит
Метод сжатия : С потерями
Размер потока : 241 Мбайт (16%)
Заголовок : Rus
Язык : Russian
Default : Да
Forced : Нет

Аудио #2
Идентификатор : 3
Формат : AC-3
Формат/Информация : Audio Coding 3
Расширение режима : CM (complete main)
Параметр Endianness формата : Big
Идентификатор кодека : A_AC3
Продолжительность : 1 ч. 15 м.
Вид битрейта : Постоянный
Битрейт : 448 Кбит/сек
Каналы : 6 каналов
Расположение каналов : Front: L C R, Side: L R, LFE
Частота : 48,0 КГц
Битовая глубина : 16 бит
Метод сжатия : С потерями
Размер потока : 241 Мбайт (16%)
Заголовок : Fre
Язык : French
Default : Нет
Forced : Нет

Текст
Идентификатор : 4
Формат : UTF-8
Идентификатор кодека : S_TEXT/UTF8
Идентификатор кодека/Информация : UTF-8 Plain Text
Заголовок : Rus
Язык : Russian
Default : Нет
Forced : Нет

Меню
00:00:00.000 : :Chapter 01
00:03:54.240 : :Chapter 02
00:10:31.360 : :Chapter 03
00:15:04.640 : :Chapter 04
00:19:20.640 : :Chapter 05
00:22:48.160 : :Chapter 06
00:26:04.640 : :Chapter 07
00:31:14.400 : :Chapter 08
00:36:43.040 : :Chapter 09
00:40:33.920 : :Chapter 10
00:44:08.960 : :Chapter 11
00:49:06.400 : :Chapter 12
00:55:07.840 : :Chapter 13
00:59:12.640 : :Chapter 14
01:03:53.760 : :Chapter 15
01:07:08.640 : :Chapter 16



   Похожие торренты   Торрент   Размер 
В этой теме нет новых непрочитанных сообщений. Властелины времени / Les Maitres Du Temps (1982) DVDRip

8 | 2

2.48 ГБ

В этой теме нет новых непрочитанных сообщений. Властелины времени / Les maîtres du temps (1982) DVDRip-AVC | D, P

312 | 3

4.01 ГБ

В этой теме нет новых непрочитанных сообщений. Властелины времени / Les maîtres du temps (1982) DVDRip от Киномагия

19 | 2

1.37 ГБ

В этой теме нет новых непрочитанных сообщений. Властелины времени / Time Masters / Les maîtres du temps (1982) DVDRip | Постобработка видео

9 | 1

1.44 ГБ

В этой теме нет новых непрочитанных сообщений. Властелины стихий 2 / Fung wan II (2009) DVDRip

15 | 6

1.37 ГБ

В этой теме нет новых непрочитанных сообщений. Властелины шторма / De Scheepsjongens van Bontekoe (2007) DVDRip

253 | 8

2 ГБ

В этой теме нет новых непрочитанных сообщений. Хи-Мен и Властелины Вселенной / He-Man and the Masters of the Universe [2-3, 5, 7, 10-11, 14-15, 17-27] (1983) DVDRip

1 | 2

4.47 ГБ




Вы не можете начинать темы
Вы не можете отвечать на сообщения
Вы не можете редактировать свои сообщения
Вы не можете удалять свои сообщения
Вы не можете добавлять вложения

Перейти:  
Для Мосгорсуда, Роскомнадзора и рекламодателей: mosgorsud-torrent[собачка]yandex.ru
 Вход
ppkBB3cker v.2 © 2008-2014 @ PPK
[ Time : 2.682s | 15 Queries | GZIP : Off ]

Торрент трекер RUTOR.IN, Не можете зайти на rutor.org? Какой новый адрес рутор? Какое зеркало рутор? Не работает rutor.org и зеркала? Тогда наш торрент специально для вас. Rutor.in неофициальное зеркало rutor. В случае если у Вас заблокирован rutor или вдруг Вы не можете на него зайти, то Вы без труда сможете скачать бесплатно и без рекламы последние новинки кино, игр, сериалов и прочего у нас, на Rutor.in. Не нужно использовать прокси, чтобы зайти на рутор, достаточно воспользоваться нашим ресурсом. Все новые фильмы, игры, сериалы, книги и музыка за 2013 и 2014 годы через торрент бесплатно. Скачивайте фильмы в хорошем качестве, игры для пк, xbox, playstation без регистрации. У нас вы найдете новые Зарубежные сериалы и Русские сериалы 2013, 2014, 2015 годов. Оставайтесь с нами, качайте любимые фильмы, игры, сериалы, книги и музыку.