img image001 image001 image001 image001 image001 image001 image001 image001 image001 image001 image001 image001 image001 image001 image001

Planets Sun Sun Sun
Статистика раздачи
Автор: Nickolas3434 | Размер: 7.29 ГБ | Добавлен: 11 мар 2014
Раздают: 404    Качают: 232
Скачать торрент
Скачать торрент
Описание торрента

СообщениеДобавлено: 11 мар 2014 

Информация о фильме
Название: София Прекрасная
Оригинальное название: Sofia the First
Год выхода: 2012
Жанр: мультфильм, фэнтези, семейный
Режиссер: Джэми Митчелл, Сэм Ригел, Ларри Лэйчлитер
В ролях: Эриэл Винтер, Сара Рамирез, Джим Каммингс, Уэйн Брэди, Дарси Роуз Барнс, Зак Каллисон, Джесс Харнелл, Дженнифер Хейл, Трэвис Виллингхем

О фильме:
Маленькая девочка, которая скоро станет принцессой, снова приглашает в гости своих лучших друзей! Тебя ждут музыка, веселье и волшебство!
Какая девочка не мечтает однажды проснуться принцессой! И прежде чем София сможет занять законное место на троне, вас ждут удивительные приключения: представление в зачарованном цирке, знакомство с ручным дракончиком и полет на волшебном ковре-самолете вместе с Софией и Эмбер! Но когда маленькие верные друзья сбиваются с пути в лазурной вышине, на помощь к ним приходит особый гость - принцесса Жасмин, которая расскажет всем маленьким принцессам, как не бояться приключений, быть сильной и верить в себя. Чудесные песни, незабываемые герои и замечательные сюрпризы.
"София Прекрасная: Как стать принцессой" открывает дверь в дивный мир, полный доброты, взаимовыручки и дружбы!
Официальный сайт

Страна: США
Студия: Disney Television Animation, Walt Disney Productions
Продолжительность: ~00:22:00 серия
Перевод: Дублированный, включая и песни (Невафильм)

Файл
Кодек: XviD / AC3
Качество: DVDRip
Видео: XviD, 720x400 (16:9), 23.976 fps, 1 654 Kbps (0.240 bit/pixel)
Звук: AC-3, 48.0 KHz, 2 ch, 192 Kbps, CBR

Семпл

General
Complete name : /София Прекрасная.DVDRip/01. Всего лишь один из принцев. Just One of the Princes.avi
Format : AVI
Format/Info : Audio Video Interleave
File size : 300 MiB
Duration : 22mn 33s
Overall bit rate : 1 856 Kbps
Writing application : VirtualDubMod 1.5.10.3 | www.virtualdub-fr.org || (build 2550/release)
Writing library : VirtualDubMod build 2550/release

Video
ID : 0
Format : MPEG-4 Visual
Format profile : Advanced Simple@L5
Format settings, BVOP : 2
Format settings, QPel : No
Format settings, GMC : No warppoints
Format settings, Matrix : Default (H.263)
Codec ID : XVID
Codec ID/Hint : XviD
Duration : 22mn 33s
Bit rate : 1 654 Kbps
Width : 720 pixels
Height : 400 pixels
Display aspect ratio : 16:9
Frame rate : 23.976 fps
Color space : YUV
Chroma subsampling : 4:2:0
Bit depth : 8 bits
Scan type : Progressive
Compression mode : Lossy
Bits/(Pixel*Frame) : 0.240
Stream size : 267 MiB (89%)
Writing library : XviD 1.2.1 (UTC 2008-12-04)

Audio
ID : 1
Format : AC-3
Format/Info : Audio Coding 3
Mode extension : CM (complete main)
Format settings, Endianness : Big
Codec ID : 2000
Duration : 22mn 33s
Bit rate mode : Constant
Bit rate : 192 Kbps
Channel(s) : 2 channels
Channel positions : Front: L R
Sampling rate : 48.0 KHz
Bit depth : 16 bits
Compression mode : Lossy
Stream size : 31.0 MiB (10%)
Alignment : Split accross interleaves
Interleave, duration : 42 ms (1.00 video frame)
Interleave, preload duration : 500 ms
Раздача ведётся путём добавления новых серий; при каждом добавлении создаётся новый торрент. Чтобы начать докачку новой серии, пользователям необходимо сделать следующее:
(1) остановить скачивание,
(2) удалить старый торрент у себя из клиента (старые серии удалять не надо),
(3) скачать новый торрент и запустить его у себя в клиенте вместо старого, при этом указать клиенту путь в старую папку куда и должно происходить скачивание новых серий.

Ваш клиент при этом должен произвести хеширование (проверку) старой папки (если не производит сам - помогите ему сделать это), и будет докачивать только те серии которых у вас ещё нет. Старые серии при этом не удаляются, а продолжают раздаваться!

Eсли вы уже удалили старые серии, то предотвратить повторную закачку старых серий можно, отжав галочку в соответствующих местах при запуске нового торрента. По возможности, желательно не удалять старые серии как можно дольше чтобы релизёр не столько продолжал раздавать старые серии, а смог сконцентрироваться на новых.



   Похожие торренты   Торрент   Размер 
В этой теме нет новых непрочитанных сообщений. София Прекрасная / Sofia the First [S01] (2012) DVDRip | D

482 | 183

7.3 ГБ

В этой теме нет новых непрочитанных сообщений. София Прекрасная / Sofia the First [01x01-18] (2012) DVDRip | D

259 | 107

5.22 ГБ

В этой теме нет новых непрочитанных сообщений. София Прекрасная / Sofia the First [01x01-20, 22, 23] (2012) DVDRip | D

279 | 306

6.71 ГБ

В этой теме нет новых непрочитанных сообщений. София Прекрасная / Sofia the First [01x01-20] (2012) DVDRip | D

429 | 117

5.8 ГБ

В этой теме нет новых непрочитанных сообщений. София Прекрасная / Sofia the First [01x01-05] (2012) DVDRip от New-Team

68 | 2

1.46 ГБ

В этой теме нет новых непрочитанных сообщений. София Прекрасная / Sofia the First [01x01-05] (2012) DVDRip-AVC от New-Team

55 | 6

1.46 ГБ

В этой теме нет новых непрочитанных сообщений. София Прекрасная / Sofia the First [01x01-09 из 24] (2012) DVDRip-AVC от New-Team

38 | 21

2.91 ГБ




Вы не можете начинать темы
Вы не можете отвечать на сообщения
Вы не можете редактировать свои сообщения
Вы не можете удалять свои сообщения
Вы не можете добавлять вложения

Перейти:  
Для Мосгорсуда, Роскомнадзора и рекламодателей: mosgorsud-torrent[собачка]yandex.ru
 Вход
ppkBB3cker v.2 © 2008-2014 @ PPK
[ Time : 0.592s | 17 Queries | GZIP : On ]

Торрент трекер RUTOR.IN, Не можете зайти на rutor.org? Какой новый адрес рутор? Какое зеркало рутор? Не работает rutor.org и зеркала? Тогда наш торрент специально для вас. Rutor.in неофициальное зеркало rutor. В случае если у Вас заблокирован rutor или вдруг Вы не можете на него зайти, то Вы без труда сможете скачать бесплатно и без рекламы последние новинки кино, игр, сериалов и прочего у нас, на Rutor.in. Не нужно использовать прокси, чтобы зайти на рутор, достаточно воспользоваться нашим ресурсом. Все новые фильмы, игры, сериалы, книги и музыка за 2013 и 2014 годы через торрент бесплатно. Скачивайте фильмы в хорошем качестве, игры для пк, xbox, playstation без регистрации. У нас вы найдете новые Зарубежные сериалы и Русские сериалы 2013, 2014, 2015 годов. Оставайтесь с нами, качайте любимые фильмы, игры, сериалы, книги и музыку.