img image001 image001 image001 image001 image001 image001 image001 image001 image001 image001 image001 image001 image001 image001 image001

Planets Sun Sun Sun
Статистика раздачи
Автор: Nickolas3434 | Размер: 1.42 ГБ | Добавлен: 13 мар 2014
Раздают: 162    Качают: 51
Скачать торрент
Скачать торрент
Описание торрента

СообщениеДобавлено: 13 мар 2014 

Информация о фильме
Название: Эрнест и Селестина: Приключения мышки и медведя
Оригинальное название: Ernest et Celestine
Год выхода: 2012
Жанр: Mультфильм, драма, комедия, семейный
Режиссер: Винсент Куртуа
В ролях: Ламбер Вильсон, Полин Бруннер, Энн-Мари Луп ( Роли дублировали: Александр Пушной, Дарья Екамасова, Наталья Сапецкая, Татьяна Лазарева, Александр Усердин)

О фильме: «Кажется, это начало прекрасной дружбы»
Большая дружба начинается с малого… Она — маленькая мышка, он — огромный медведь. Она — ребенок, он — взрослый. Она мечтает быть художницей, хотя по правилам своего мира должна стать дантистом, он — музыкант и поэт, ведущий бездумную жизнь и никогда не имеющий куска хлеба на завтра. Они живут в разных мирах: для обитателей мышиного царства нет ничего более дикого, чем подружиться с «большим плохим медведем», да и его соседи вряд ли поймут, зачем водиться с мышкой. Но дружба и родство душ сродни настоящему волшебству. И какое этой парочке дело до условностей, разницы в размере, исторических предрассудков и культурных барьеров?


Страна: Франция, Бельгия
Студия: La Parti Productions, StudioCanal…
Продолжительность: 01:19:21
Перевод: Дублированное Лицензия

Файл
Кодек: h.264
Качество: BDRip-AVC
Видео: AVC, 1024 x 576, ~1608 kbps
Звук #1: Русский: AC-3, 6 ch, 448 kbps
Звук #2: Французский: AC-3, 6 ch, 448 kbps

Общее
Уникальный идентификатор : 168348648403719580577546155723716462494 (0x7EA6C532C2870C1E037BA147C20E879E)
Полное имя : G:Эрнест и Селестина Приключения мышки и медведя Ernest et Celestine (2012) BDRip [AVC]Ernest.i.Selestina.2012.D.BDRip-AVC..mkv
Формат : Matroska
Версия формата : Version 2
Размер файла : 1,42 Гбайт
Продолжительность : 1 ч. 19 м.
Режим общего битрейта : Переменный
Общий поток : 2555 Кбит/сек
Программа кодирования : Lavf51.12.1
Библиотека кодирования : Lavf51.12.1

Видео
Идентификатор : 1
Формат : AVC
Формат/Информация : Advanced Video Codec
Профиль формата : Baseline@L3.1
Параметр CABAC формата : Нет
Параметр ReFrames формата : 1 кадр
Параметр GOP формата : M=1, N=12
Идентификатор кодека : V_MPEG4/ISO/AVC
Продолжительность : 1 ч. 19 м.
Вид битрейта : Переменный
Битрейт : 1608 Кбит/сек
Максимальный битрейт : 2490 Кбит/сек
Ширина : 1024 пикселя
Высота : 576 пикселей
Соотношение сторон : 16:9
Режим частоты кадров : Постоянный
Частота кадров : 23,976 кадра/сек
Частота кадров в оригинале : 24,000 кадра/сек
Цветовое пространство : YUV
Субдискретизация насыщенности : 4:2:0
Битовая глубина : 8 бит
Тип развёртки : Прогрессивная
Бит/(Пиксели*Кадры) : 0.114
Размер потока : 913 Мбайт (63%)
Язык : English
Default : Да
Forced : Нет

Аудио #1
Идентификатор : 2
Формат : AC-3
Формат/Информация : Audio Coding 3
Расширение режима : CM (complete main)
Параметр Endianness формата : Big
Идентификатор кодека : A_AC3
Продолжительность : 1 ч. 19 м.
Вид битрейта : Постоянный
Битрейт : 448 Кбит/сек
Каналы : 6 каналов
Расположение каналов : Front: L C R, Side: L R, LFE
Частота : 44,1 КГц
Битовая глубина : 16 бит
Метод сжатия : С потерями
Размер потока : 254 Мбайт (18%)
Язык : Russian
Default : Да
Forced : Нет

Аудио #2
Идентификатор : 3
Формат : AC-3
Формат/Информация : Audio Coding 3
Расширение режима : CM (complete main)
Параметр Endianness формата : Big
Идентификатор кодека : A_AC3
Продолжительность : 1 ч. 19 м.
Вид битрейта : Постоянный
Битрейт : 448 Кбит/сек
Каналы : 6 каналов
Расположение каналов : Front: L C R, Side: L R, LFE
Частота : 48,0 КГц
Битовая глубина : 16 бит
Метод сжатия : С потерями
Размер потока : 254 Мбайт (18%)
Язык : French
Default : Да
Forced : Нет



   Похожие торренты   Торрент   Размер 
В этой теме нет новых непрочитанных сообщений. Эрнест и Селестина: Приключения мышки и медведя / Ernest et Celestine (2012) HDRip | Лицензия

136 | 8

1.37 ГБ

В этой теме нет новых непрочитанных сообщений. Эрнест и Селестина: Приключения мышки и медведя / Ernest et Celestine (2012) DVD9 | Лицензия

15 | 4

5.13 ГБ

В этой теме нет новых непрочитанных сообщений. Эрнест и Селестина: Приключения мышки и медведя / Ernest et Célestine (2012) BDRip 720p от Leonardo and Scarabey | Лицензия

129 | 4

1.41 ГБ

В этой теме нет новых непрочитанных сообщений. Эрнест и Селестина: Приключения мышки и медведя / Ernest et Célestine (2012) BDRip 1080p

230 | 14

2.19 ГБ

В этой теме нет новых непрочитанных сообщений. Эрнест и Селестина: Приключения мышки и медведя / Ernest et Celestine (2012) BDRip 1080p от R.G.GoldenShara

20 | 8

4.37 ГБ

В этой теме нет новых непрочитанных сообщений. Эрнест и Селестина: Приключения мышки и медведя / Ernest et Celestine (2012) BDRip 720p от R.G.GoldenShara

27 | 7

2.19 ГБ

В этой теме нет новых непрочитанных сообщений. Эрнест и Селестина: Приключения мышки и медведя / Ernest et Celestine (2012) HDRip от Files-x

30 | 5

716.3 МБ




Вы не можете начинать темы
Вы не можете отвечать на сообщения
Вы не можете редактировать свои сообщения
Вы не можете удалять свои сообщения
Вы не можете добавлять вложения

Перейти:  
Для Мосгорсуда, Роскомнадзора и рекламодателей: mosgorsud-torrent[собачка]yandex.ru
 Вход
ppkBB3cker v.2 © 2008-2014 @ PPK
[ Time : 0.874s | 15 Queries | GZIP : Off ]

Торрент трекер RUTOR.IN, Не можете зайти на rutor.org? Какой новый адрес рутор? Какое зеркало рутор? Не работает rutor.org и зеркала? Тогда наш торрент специально для вас. Rutor.in неофициальное зеркало rutor. В случае если у Вас заблокирован rutor или вдруг Вы не можете на него зайти, то Вы без труда сможете скачать бесплатно и без рекламы последние новинки кино, игр, сериалов и прочего у нас, на Rutor.in. Не нужно использовать прокси, чтобы зайти на рутор, достаточно воспользоваться нашим ресурсом. Все новые фильмы, игры, сериалы, книги и музыка за 2013 и 2014 годы через торрент бесплатно. Скачивайте фильмы в хорошем качестве, игры для пк, xbox, playstation без регистрации. У нас вы найдете новые Зарубежные сериалы и Русские сериалы 2013, 2014, 2015 годов. Оставайтесь с нами, качайте любимые фильмы, игры, сериалы, книги и музыку.