img image001 image001 image001 image001 image001 image001 image001 image001 image001 image001 image001 image001 image001 image001 image001

Planets Sun Sun Sun
Статистика раздачи
Автор: Nickolas3434 | Размер: 1.46 ГБ | Добавлен: 15 мар 2014
Раздают: 1357    Качают: 503
Скачать торрент
Скачать торрент
Описание торрента

СообщениеДобавлено: 15 мар 2014 


Страна: Малайзия / Top Film Distribution, Россия; TFD Film Ukraine, Украина
Жанр: мультфильм, фантастика, приключения
Год выпуска: 2013
Продолжительность: 01:36:07

Перевод: Профессиональный (дублированный)
Cубтитры: нет
Оригинальная аудиодорожка: нет

Режиссер: Лунг Ах / Loong Ah, Чонг Ти Чуа / Chong Tee Chua

В ролях: Харрис Алиф, Айзат Амдан, Харун Салим Бачик, Стивен Боун, Эзлин, Дуглас Лим, Марша Милан Лондох, Азнил Хдж Хавави, Рахим Омар, Но Саллех...

Описание: Аманда — юная принцесса из видеоигры «Королевство Хилл». Когда её виртуальное царство подвергается атаке, она волшебным образом переносится в реальный мир, чтобы найти легендарного «Солнечного воина», который может спасти её дом.



Качество: DVDRip / DVD5 R5
Формат: AVI

Видео: 720x384 (1.85:1), 25.000 fps, XviD ~ 1704 kbps avg, 0.248 bit/pixel
Аудио: 48 kHz, Dolby AC3, 6 ch, 448 kbps, русский

Раздача от:
Общее
Полное имя : Roboty.2013.D.DVDRip_[New-Team]_by_avproh.avi
Формат : AVI
Формат/Информация : Audio Video Interleave
Размер файла : 1,46 Гбайт
Продолжительность : 1 ч. 36 м.
Общий поток : 2170 Кбит/сек
Программа кодирования : VirtualDubMod 1.5.10.3 | www.virtualdub-fr.org || (build 2550/release)
Библиотека кодирования : VirtualDubMod build 2550/release

Видео
Идентификатор : 0
Формат : MPEG-4 Visual
Профиль формата : Advanced Simple@L5
Параметр BVOP формата : 1
Параметр QPel формата : Нет
Параметр GMC формата : Без точки перехода
Параметр матрицы формата : Выборочная
Идентификатор кодека : XVID
Идентификатор кодека/Подсказка : XviD
Продолжительность : 1 ч. 36 м.
Битрейт : 1713 Кбит/сек
Ширина : 720 пикселей
Высота : 384 пикселя
Соотношение сторон : 1,85:1
Частота кадров : 25,000 кадров/сек
Цветовое пространство : YUV
Субдискретизация насыщенности : 4:2:0
Битовая глубина : 8 бит
Тип развёртки : Прогрессивная
Метод сжатия : С потерями
Бит/(Пиксели*Кадры) : 0.248
Размер потока : 1,15 Гбайт (79%)
Библиотека кодирования : XviD 73

Аудио
Идентификатор : 1
Формат : AC-3
Формат/Информация : Audio Coding 3
Расширение режима : CM (complete main)
Параметр Endianness формата : Big
Идентификатор кодека : 2000
Продолжительность : 1 ч. 36 м.
Вид битрейта : Постоянный
Битрейт : 448 Кбит/сек
Каналы : 6 каналов
Расположение каналов : Front: L C R, Side: L R, LFE
Частота : 48,0 КГц
Битовая глубина : 16 бит
Метод сжатия : С потерями
Размер потока : 308 Мбайт (21%)
Выравнивание : Разделение по промежуткам
Продолжительность промежутка : 40 мс. (1,00 видеокадр)
Время предзагрузки промежутка : 500 мс.





   Похожие торренты   Торрент   Размер 
В этой теме нет новых непрочитанных сообщений. Роботы / Bola Kampung: The Movie (2013) DVDRip от New-Team | D | лицензия

451 | 135

744.91 МБ

В этой теме нет новых непрочитанных сообщений. Роботы / Bola Kampung: The Movie (2013) DVD5 R5 от New-Team | D | лицензия

97 | 22

3.75 ГБ

В этой теме нет новых непрочитанных сообщений. Роботы / Bola Kampung: The Movie (2013) WEB-DL 1080p | Лицензия

79 | 48

2.98 ГБ

В этой теме нет новых непрочитанных сообщений. Роботы / Bola Kampung: The Movie (2013) WebRip | D

978 | 244

1.37 ГБ

В этой теме нет новых непрочитанных сообщений. Роботы / Bola Kampung: The Movie (2013) WEB-DLRip от FilmRus

97 | 17

1.46 ГБ

В этой теме нет новых непрочитанных сообщений. Bola Kampung: RoboKicks (2013) Android

4 | 2

39.83 МБ

В этой теме нет новых непрочитанных сообщений. Шарик / El Bola (2000) DVDRip

57 | 9

1.46 ГБ




Вы не можете начинать темы
Вы не можете отвечать на сообщения
Вы не можете редактировать свои сообщения
Вы не можете удалять свои сообщения
Вы не можете добавлять вложения

Перейти:  
Для Мосгорсуда, Роскомнадзора и рекламодателей: mosgorsud-torrent[собачка]yandex.ru
 Вход
ppkBB3cker v.2 © 2008-2014 @ PPK
[ Time : 0.039s | 16 Queries | GZIP : Off ]

Торрент трекер RUTOR.IN, Не можете зайти на rutor.org? Какой новый адрес рутор? Какое зеркало рутор? Не работает rutor.org и зеркала? Тогда наш торрент специально для вас. Rutor.in неофициальное зеркало rutor. В случае если у Вас заблокирован rutor или вдруг Вы не можете на него зайти, то Вы без труда сможете скачать бесплатно и без рекламы последние новинки кино, игр, сериалов и прочего у нас, на Rutor.in. Не нужно использовать прокси, чтобы зайти на рутор, достаточно воспользоваться нашим ресурсом. Все новые фильмы, игры, сериалы, книги и музыка за 2013 и 2014 годы через торрент бесплатно. Скачивайте фильмы в хорошем качестве, игры для пк, xbox, playstation без регистрации. У нас вы найдете новые Зарубежные сериалы и Русские сериалы 2013, 2014, 2015 годов. Оставайтесь с нами, качайте любимые фильмы, игры, сериалы, книги и музыку.