img image001 image001 image001 image001 image001 image001 image001 image001 image001 image001 image001 image001 image001 image001 image001

Planets Sun Sun Sun
Статистика раздачи
Автор: Nickolas3434 | Размер: 4.39 ГБ | Добавлен: 17 мар 2014
Раздают: 2375    Качают: 304
Скачать торрент
Скачать торрент
Описание торрента

СообщениеДобавлено: 17 мар 2014 

Информация о фильме
Название: Космический пират Харлок
Оригинальное название: Space Pirate Captain Harlock
Год выпуска: 2013
Жанр: мультфильм, фантастика, боевик, приключения
Режиссер: Синдзи Арамаки
В ролях: Шун Огури, Аои Ю, Аяно Фукуда, Арата Фурута, Киёси Кобаяси, Харума Миура, Морикава Тосиюки, Тикао Оцука, Маая Сакамото, Миюки Савасиро

О фильме: Далекое будущее. Преступная корпорация Гайя стала злейшим врагом Земли, отобрав у людей все: свободу, дом, будущее… Казалось, что надежды на спасение нет… Но, появился Он — космический пират Харлок, капитан призрачного корабля Аркадия. Беглец, готовый сражаться за Землю. Кто Он, герой или преступник?..



Примечание: Отсутствует около 2-3 мин озвучки, на эти минуты есть русские субтитры.

Выпущено: Япония, США, Франция
Продолжительность: 01:55:06
Перевод: Любительский (многоголосый)

Файл
Формат: MKV
Качество: BDRip 720p
Видео: 3500 Kb/s, 1280x536
Аудио: Russian: AC3, 448 kb/s (6 ch) / Japanese: DTS, 1510 kb/s (6 ch)
Субтитры: Russian, English





Format : Matroska
Format version : Version 4 / Version 2
File size : 4.39 GiB
Duration : 1h 55mn
Overall bit rate : 5 460 Kbps
Movie name : SPACE.PIRATE.CAPTAIN.HARLOCK.2013.BDRip.720p
Encoded date : UTC 2014-03-11 00:32:52
Writing application : mkvmerge v6.7.0 ('Back to the Ground') 64bit built on Jan 8 2014 15:10:52
Writing library : libebml v1.3.0 + libmatroska v1.4.1

Video
ID : 1
Format : AVC
Format/Info : Advanced Video Codec
Format profile : High@L4.1
Format settings, CABAC : Yes
Format settings, ReFrames : 12 frames
Codec ID : V_MPEG4/ISO/AVC
Duration : 1h 55mn
Bit rate : 3 500 Kbps
Width : 1 280 pixels
Height : 536 pixels
Display aspect ratio : 2.40:1
Frame rate : 23.976 fps
Color space : YUV
Chroma subsampling : 4:2:0
Bit depth : 8 bits
Scan type : Progressive
Bits/(Pixel*Frame) : 0.213
Stream size : 2.73 GiB (62%)
Title : SPACE.PIRATE.CAPTAIN.HARLOCK.2013.BDRip.720p
Writing library : x264 core 129 r2245+704+36 8e61944 tMod+MixAQ [8-bit@4:2:0 X86_64]
Encoding settings : cabac=1 / ref=12 / deblock=1:-1:-1 / analyse=0x3:0x133 / me=umh / subme=11 / psy=1 / fade_compensate=0.00 / psy_rd=0.60:0.00 / mixed_ref=1 / me_range=32 / chroma_me=1 / trellis=2 / 8x8dct=1 / cqm=0 / deadzone=21,11 / fast_pskip=0 / chroma_qp_offset=-2 / threads=18 / lookahead_threads=3 / sliced_threads=0 / nr=0 / decimate=0 / interlaced=0 / bluray_compat=0 / constrained_intra=0 / fgo=0 / bframes=10 / b_pyramid=2 / b_adapt=2 / b_bias=0 / direct=3 / weightb=1 / open_gop=0 / weightp=2 / keyint=250 / keyint_min=23 / scenecut=40 / intra_refresh=0 / rc=2pass / mbtree=0 / bitrate=3500 / ratetol=1.0 / qcomp=0.70 / qpmin=0 / qpmax=69 / qpstep=4 / cplxblur=20.0 / qblur=0.5 / ip_ratio=1.40 / pb_ratio=1.30 / aq=3 / aq-strength=0.95 / aq-sensitivity=10.00 / aq-ifactor=1.00 / aq-pfactor=1.00 / aq-bfactor=1.00 / aq2=0
Language : English
Default : Yes
Forced : No

Audio #1
ID : 2
Format : AC-3
Format/Info : Audio Coding 3
Mode extension : CM (complete main)
Format settings, Endianness : Big
Codec ID : A_AC3
Duration : 1h 55mn
Bit rate mode : Constant
Bit rate : 448 Kbps
Channel(s) : 6 channels
Channel positions : Front: L C R, Side: L R, LFE
Sampling rate : 48.0 KHz
Bit depth : 16 bits
Compression mode : Lossy
Stream size : 369 MiB (8%)
Title : Russian AC-3 (48 KHz; 448 Kbps; 6 ch; 16 bits)
Language : Russian
Default : Yes
Forced : Yes

Audio #2
ID : 3
Format : DTS
Format/Info : Digital Theater Systems
Codec ID : A_DTS
Duration : 1h 55mn
Bit rate mode : Constant
Bit rate : 1 510 Kbps
Channel(s) : 6 channels
Channel positions : Front: L C R, Side: L R, LFE
Sampling rate : 48.0 KHz
Bit depth : 24 bits
Compression mode : Lossy
Stream size : 1.21 GiB (28%)
Title : Japanese DTS (48 KHz; 1509 Kbps; 6 ch; 24 bits)
Language : Japanese
Default : No
Forced : No

Text #1
ID : 4
Format : UTF-8
Codec ID : S_TEXT/UTF8
Codec ID/Info : UTF-8 Plain Text
Title : Russian_1 (SRT)
Language : Russian
Default : Yes
Forced : No

Text #2
ID : 5
Format : UTF-8
Codec ID : S_TEXT/UTF8
Codec ID/Info : UTF-8 Plain Text
Title : Russian_2 (SRT)
Default : No
Forced : No

Text #3
ID : 6
Format : UTF-8
Codec ID : S_TEXT/UTF8
Codec ID/Info : UTF-8 Plain Text
Title : English (SRT)
Language : English
Default : No
Forced : No

Menu
00:00:00.000 : en:00:00:00.000
00:02:00.453 : en:00:02:00.453
00:07:42.920 : en:00:07:42.920
00:14:16.897 : en:00:14:16.897
00:18:00.120 : en:00:18:00.120
00:24:02.315 : en:00:24:02.315
00:30:51.349 : en:00:30:51.349
00:40:31.053 : en:00:40:31.053
00:43:42.411 : en:00:43:42.411
00:49:21.500 : en:00:49:21.500
00:54:03.365 : en:00:54:03.365
01:06:38.244 : en:01:06:38.244
01:21:25.422 : en:01:21:25.422
01:23:40.557 : en:01:23:40.557
01:36:55.726 : en:01:36:55.726
01:41:41.512 : en:01:41:41.512
01:47:42.456 : en:01:47:42.456



   Похожие торренты   Торрент   Размер 
В этой теме нет новых непрочитанных сообщений. Космический пират Харлок / Space Pirate Captain Harlock (2013) BDRip 720p | Лицензия

1051 | 73

3.12 ГБ

В этой теме нет новых непрочитанных сообщений. Космический пират Харлок / Space Pirate Captain Harlock (2013) BDRip-AVC | A,L

207 | 16

4.38 ГБ

В этой теме нет новых непрочитанных сообщений. Космический пират Харлок / Space Pirate Captain Harlock (2013) BDRip 720p | UNRATED | Чистый звук

1777 | 427

4.29 ГБ

В этой теме нет новых непрочитанных сообщений. Космический пират Харлок / Space Pirate Captain Harlock / キャプテンハーロック ロック (2013) BDRip-AVC | L

1076 | 138

2.22 ГБ

В этой теме нет новых непрочитанных сообщений. Космический пират Харлок / Space Pirate Captain Harlock (2013) BDRip 1080p | 3D-Video | L

410 | 262

8.77 ГБ

В этой теме нет новых непрочитанных сообщений. Космический пират Харлок / Space Pirate Captain Harlock (2013) BDRip-AVC от HELLYWOOD | iTunes

412 | 31

2.13 ГБ

В этой теме нет новых непрочитанных сообщений. Космический пират Харлок / Space Pirate Captain Harlock (2013) BDRip-AVC от HELLYWOOD | Ю.Живов

1452 | 325

2.18 ГБ




Вы не можете начинать темы
Вы не можете отвечать на сообщения
Вы не можете редактировать свои сообщения
Вы не можете удалять свои сообщения
Вы не можете добавлять вложения

Перейти:  
Для Мосгорсуда, Роскомнадзора и рекламодателей: mosgorsud-torrent[собачка]yandex.ru
 Вход
ppkBB3cker v.2 © 2008-2014 @ PPK
[ Time : 0.024s | 14 Queries | GZIP : Off ]
CGP output time : 0.035s | 5 Queries | GZIP : Off

Торрент трекер RUTOR.IN, Не можете зайти на rutor.org? Какой новый адрес рутор? Какое зеркало рутор? Не работает rutor.org и зеркала? Тогда наш торрент специально для вас. Rutor.in неофициальное зеркало rutor. В случае если у Вас заблокирован rutor или вдруг Вы не можете на него зайти, то Вы без труда сможете скачать бесплатно и без рекламы последние новинки кино, игр, сериалов и прочего у нас, на Rutor.in. Не нужно использовать прокси, чтобы зайти на рутор, достаточно воспользоваться нашим ресурсом. Все новые фильмы, игры, сериалы, книги и музыка за 2013 и 2014 годы через торрент бесплатно. Скачивайте фильмы в хорошем качестве, игры для пк, xbox, playstation без регистрации. У нас вы найдете новые Зарубежные сериалы и Русские сериалы 2013, 2014, 2015 годов. Оставайтесь с нами, качайте любимые фильмы, игры, сериалы, книги и музыку.