img image001 image001 image001 image001 image001 image001 image001 image001 image001 image001 image001 image001 image001 image001 image001

Planets Sun Sun Sun
Статистика раздачи
Автор: Nickolas3434 | Размер: 2.22 ГБ | Добавлен: 16 мар 2014
Раздают: 1076    Качают: 138
Скачать торрент
Скачать торрент
Описание торрента

СообщениеДобавлено: 16 мар 2014 

Информация о фильме
Название: Космический пират Харлок
Оригинальное название: Space Pirate Captain Harlock / キャプテンハーロック
Год выхода: 2013
Жанр: мультфильм, фантастика, боевик, приключения
Режиссер: Синдзи Арамаки
В ролях: Шун Огури, Аои Ю, Аяно Фукуда, Арата Фурута, Киёси Кобаяси, Харума Миура, Морикава Тосиюки, Тикао Оцука, Маая Сакамото, Миюки Савасиро

О фильме: «Действительно ли он - враг государства... или это их последняя надежда?»
Далекое будущее. Преступная корпорация Гайя стала злейшим врагом Земли, отобрав у людей все: свободу, дом, будущее… Казалось, что надежды на спасение нет… Но, появился Он — космический пират Харлок, капитан призрачного корабля Аркадия. Беглец, готовый сражаться за Землю. Кто Он, герой или преступник?..


Страна: Япония, США, Франция
Студия: Toei Animation Company
Продолжительность: 01:55:06
Перевод: Любительский многоголосый

Файл
Кодек: h.264
Качество: BDRip-AVC
Видео: AVC, 1024 x 432, ~ 1811 kbps
Звук: Русский / Японский: AC3, 6 ch, 448 kbps
Субтитры: Русский
Примечание: Отсутствует около 2-3 мин озвучки, на эти минуты есть русские субтитры

Семпл

Общее
Уникальный идентификатор : 168348648403719580577546155723716462494 (0x7EA6C532C2870C1E037BA147C20E879E)
Полное имя : G:Space Pirate Captain Harlock Космический пират Харлок [2013, MV] BDRip-AVC RawSPACE.PIRATE.CAPTAIN.HARLOCK.2013.BDRip-AVC.mkv
Формат : Matroska
Версия формата : Version 2
Размер файла : 2,22 Гбайт
Продолжительность : 1 ч. 55 м.
Режим общего битрейта : Переменный
Общий поток : 2762 Кбит/сек
Программа кодирования : Lavf51.12.1
Библиотека кодирования : Lavf51.12.1

Видео
Идентификатор : 1
Формат : AVC
Формат/Информация : Advanced Video Codec
Профиль формата : Baseline@L3.1
Параметр CABAC формата : Нет
Параметр ReFrames формата : 1 кадр
Параметр GOP формата : M=1, N=12
Идентификатор кодека : V_MPEG4/ISO/AVC
Продолжительность : 1 ч. 55 м.
Вид битрейта : Переменный
Битрейт : 1811 Кбит/сек
Максимальный битрейт : 2790 Кбит/сек
Ширина : 1024 пикселя
Высота : 432 пикселя
Соотношение сторон : 2,40:1
Режим частоты кадров : Постоянный
Частота кадров : 23,976 кадра/сек
Частота кадров в оригинале : 24,000 кадра/сек
Цветовое пространство : YUV
Субдискретизация насыщенности : 4:2:0
Битовая глубина : 8 бит
Тип развёртки : Прогрессивная
Бит/(Пиксели*Кадры) : 0.171
Размер потока : 1,46 Гбайт (66%)
Язык : English
Default : Да
Forced : Нет

Аудио #1
Идентификатор : 2
Формат : AC-3
Формат/Информация : Audio Coding 3
Расширение режима : CM (complete main)
Параметр Endianness формата : Big
Идентификатор кодека : A_AC3
Продолжительность : 1 ч. 55 м.
Вид битрейта : Постоянный
Битрейт : 448 Кбит/сек
Каналы : 6 каналов
Расположение каналов : Front: L C R, Side: L R, LFE
Частота : 48,0 КГц
Битовая глубина : 16 бит
Метод сжатия : С потерями
Размер потока : 369 Мбайт (16%)
Язык : Russian
Default : Да
Forced : Нет

Аудио #2
Идентификатор : 4
Формат : AC-3
Формат/Информация : Audio Coding 3
Расширение режима : CM (complete main)
Параметр Endianness формата : Big
Идентификатор кодека : A_AC3
Продолжительность : 1 ч. 55 м.
Вид битрейта : Постоянный
Битрейт : 448 Кбит/сек
Каналы : 6 каналов
Расположение каналов : Front: L C R, Side: L R, LFE
Частота : 48,0 КГц
Битовая глубина : 16 бит
Метод сжатия : С потерями
Размер потока : 369 Мбайт (16%)
Язык : Japanese
Default : Да
Forced : Нет

Текст
Идентификатор : 3
Формат : UTF-8
Идентификатор кодека : S_TEXT/UTF8
Идентификатор кодека/Информация : UTF-8 Plain Text
Язык : Russian
Default : Да
Forced : Нет



   Похожие торренты   Торрент   Размер 
В этой теме нет новых непрочитанных сообщений. Космический пират Харлок / Space Pirate Captain Harlock (2013) BDRip-AVC | A,L

207 | 16

4.38 ГБ

В этой теме нет новых непрочитанных сообщений. Космический пират Харлок / Space Pirate Captain Harlock (2013) BDRip 720p

2375 | 304

4.39 ГБ

В этой теме нет новых непрочитанных сообщений. Космический пират Харлок / Space Pirate Captain Harlock (2013) BDRip 1080p | 3D-Video | L

410 | 262

8.77 ГБ

В этой теме нет новых непрочитанных сообщений. Космический пират Харлок / Space Pirate Captain Harlock (2013) BDRip-AVC от HELLYWOOD | Ю.Живов

1437 | 324

2.18 ГБ

В этой теме нет новых непрочитанных сообщений. Космический пират Харлок / Space Pirate Captain Harlock (2013) BDRip от Stranik 2.0 | D | Лицензия

138 | 9

730.3 МБ

В этой теме нет новых непрочитанных сообщений. Космический пират Харлок / Space Pirate Captain Harlock (2013) BDRip-AVC от HELLYWOOD | iTunes

412 | 31

2.13 ГБ

В этой теме нет новых непрочитанных сообщений. Космический пират Харлок / Space Pirate Captain Harlock (2013) BDRip 720p | Лицензия

1051 | 73

3.12 ГБ




Вы не можете начинать темы
Вы не можете отвечать на сообщения
Вы не можете редактировать свои сообщения
Вы не можете удалять свои сообщения
Вы не можете добавлять вложения

Перейти:  
Для Мосгорсуда, Роскомнадзора и рекламодателей: mosgorsud-torrent[собачка]yandex.ru
 Вход
ppkBB3cker v.2 © 2008-2014 @ PPK
[ Time : 0.053s | 16 Queries | GZIP : Off ]

cron