img image001 image001 image001 image001 image001 image001 image001 image001 image001 image001 image001 image001 image001 image001 image001

Planets Sun Sun Sun
Статистика раздачи
Автор: Nickolas3434 | Размер: 1.46 ГБ | Добавлен: 18 мар 2014
Раздают: 154    Качают: 31
Скачать торрент
Скачать торрент
Описание торрента

СообщениеДобавлено: 18 мар 2014 


АНОНСЫ МОИХ РИПОВ! ЛУЧШИЕ ФИЛЬМЫ И СЕРИАЛЫ ВСЕЙ ПЛАНЕТЫ! Подпишись :)


Планета сокровищ / Treasure Planet

Страна: США
Год выпуска: 2002
Жанр: мультфильм, фантастика, мелодрама, приключения
Продолжительность: 01:35:23
Перевод: Профессиональный (дублированный)
Субтитры: нет

Режиссёр: Рон Клементс, Джон Маскер / Ron Clements, John Musker

Роли озвучивали / дублировали: Роско Ли Браун, Кори Бертон, Дэйн А. Дэвис, Джозеф Гордон-Левитт, Тони Джей, Остин Мэйджерс, Патрик МакГуэн, Майкл МакШейн, Лори Меткаф, Брайан Мюррей / Сергей Воробьев (Mr. Arrow), Роман Бурлаков (Jim Hawkins), Федор Машанов (Young Jim), Борис Улитин (Billy Bones), Елена Шульман (Sarah Hawkins), Андрей Толубеев (John Silver), Валерий Дегтярь (Doctor Doppler), Ян Цапник (B.E.N.), Ирина Коновалова (Captain Amelia), Сергей Лысов (Scroop)

Описание: 16-летний Джим Хоукинс отправляется на поиски таинственной Планеты Сокровищ в компании настоящих космических пиратов. Под руководством корабельного кока, киборга Джона Сильвера, он становится умелым «космоплавателем» и не раз спасает космический галеон от самых серьезных опасностей: черных дыр, взрывов сверхновых и космических штормов.
Но главное испытание поджидает юного героя впереди — предательство близкого друга, который вместе с командой матросов пытается обманом захватить все сокровища и скрыться…



Качество: HDRip [Исходник BDRip 1080p]
Формат: AVI
Видео кодек: XviD
Аудио кодек: AC3
Видео: 704x416 (1.69:1), 23.976 fps, XviD build 73 ~1793 kbps avg, 0.26 bit/pixel
Аудио: 48 kHz, AC3 Dolby Digital, 3/2 (L,C,R,l,r) + LFE ch, ~384 kbps

Раздача от:



D:Мои рипыTreasure.Planet.2002.hdrip.dexter_lex.avi
General
Complete name : D:Мои рипыTreasure.Planet.2002.hdrip.dexter_lex.avi
Format : AVI
Format/Info : Audio Video Interleave
File size : 1.46 GiB
Duration : 1h 35mn
Overall bit rate : 2 187 Kbps
Writing application : VirtualDubMod 1.5.10.3 | www.virtualdub-fr.org || (build 2550/release)
Writing library : VirtualDubMod build 2550/release
Video #0
ID : 0
Format : MPEG-4 Visual
Format profile : Advanced Simple@L5
Format settings, BVOP : 1
Format settings, QPel : No
Format settings, GMC : No warppoints
Format settings, Matrix : Custom
Codec ID : XVID
Codec ID/Hint : XviD
Duration : 1h 35mn
Bit rate : 1 794 Kbps
Width : 704 pixels
Height : 416 pixels
Display aspect ratio : 1.692
Frame rate : 23.976 fps
Color space : YUV
Chroma subsampling : 4:2:0
Bit depth : 8 bits
Scan type : Progressive
Compression mode : Lossy
Bits/(Pixel*Frame) : 0.255
Stream size : 1.20 GiB (82%)
Writing library : XviD 73
Audio #1
ID : 1
Format : AC-3
Format/Info : Audio Coding 3
Mode extension : CM (complete main)
Codec ID : 2000
Duration : 1h 35mn
Bit rate mode : Constant
Bit rate : 384 Kbps
Channel(s) : 6 channels
Channel positions : Front: L C R, Side: L R, LFE
Sampling rate : 48.0 KHz
Bit depth : 16 bits
Compression mode : Lossy
Stream size : 262 MiB (18%)
Alignment : Split accross interleaves
Interleave, duration : 42 ms (1.00 video frame)
Interleave, preload duration : 500 ms



   Похожие торренты   Торрент   Размер 
В этой теме нет новых непрочитанных сообщений. Планета сокровищ / Treasure Planet (2002) HDRip-AVC от New-Team

96 | 36

744.89 МБ

В этой теме нет новых непрочитанных сообщений. Планета сокровищ / Treasure Planet (2002) HDRip | D

49 | 6

743.83 МБ

В этой теме нет новых непрочитанных сообщений. Планета сокровищ / Treasure Planet (2002) HDRip-AVC от potrokis

4 | 3

1.46 ГБ

В этой теме нет новых непрочитанных сообщений. Планета сокровищ / Treasure Planet (2002) DVDRip

114 | 5

1.37 ГБ

В этой теме нет новых непрочитанных сообщений. Планета сокровищ / Treasure Planet (2002) DVD9

3 | 2

7.83 ГБ

В этой теме нет новых непрочитанных сообщений. Планета сокровищ / Treasure Planet (2002) DVDRip

49 | 5

744.35 МБ

В этой теме нет новых непрочитанных сообщений. Планета сокровищ / Treasure Planet (2002) BDRip-AVC | iPad

51 | 2

2.18 ГБ




Вы не можете начинать темы
Вы не можете отвечать на сообщения
Вы не можете редактировать свои сообщения
Вы не можете удалять свои сообщения
Вы не можете добавлять вложения

Перейти:  
Для Мосгорсуда, Роскомнадзора и рекламодателей: mosgorsud-torrent[собачка]yandex.ru
 Вход
ppkBB3cker v.2 © 2008-2014 @ PPK
[ Time : 0.524s | 17 Queries | GZIP : Off ]

Торрент трекер RUTOR.IN, Не можете зайти на rutor.org? Какой новый адрес рутор? Какое зеркало рутор? Не работает rutor.org и зеркала? Тогда наш торрент специально для вас. Rutor.in неофициальное зеркало rutor. В случае если у Вас заблокирован rutor или вдруг Вы не можете на него зайти, то Вы без труда сможете скачать бесплатно и без рекламы последние новинки кино, игр, сериалов и прочего у нас, на Rutor.in. Не нужно использовать прокси, чтобы зайти на рутор, достаточно воспользоваться нашим ресурсом. Все новые фильмы, игры, сериалы, книги и музыка за 2013 и 2014 годы через торрент бесплатно. Скачивайте фильмы в хорошем качестве, игры для пк, xbox, playstation без регистрации. У нас вы найдете новые Зарубежные сериалы и Русские сериалы 2013, 2014, 2015 годов. Оставайтесь с нами, качайте любимые фильмы, игры, сериалы, книги и музыку.
cron