img image001 image001 image001 image001 image001 image001 image001 image001 image001 image001 image001 image001 image001 image001 image001

Planets Sun Sun Sun
Статистика раздачи
Автор: Nickolas3434 | Размер: 285.78 МБ | Добавлен: 19 мар 2014
Раздают: 84    Качают: 27
Скачать торрент
Скачать торрент
Описание торрента

СообщениеДобавлено: 19 мар 2014 

Конь-огонь
Get a Horse!



Год выпуска: 2013
Страна: США (Walt Disney Animation Studios)
Жанр: Мультфильм, Короткометражка, Комедия
Продолжительность: 0:06:02

Перевод: Любительский одноголосый закадровый - datynet

Режиссер: Лорен МакМаллен / Lauren MacMullan
Продюсер: Джон Лассетер / John Lasseter

Роли озвучивали (на английском): Уолт Дисней (Mickey Mouse (archive sound)), Марселлит Гарнер (Minnie Mouse (archive sound)), Расси Тейлор (Minnie Mouse), Билли Блэтчер (Peg-Leg Pete (archive sound)), Уилл Райан (Peg-Leg Pete), Боб Берген, Пол Бриггс, Терри Дуглас, Джесс Харнелл

Описание: Продолжение приключений Микки Мауса, Минни, Кларабель Кау и Хорэс Хорсколлара в стиле 1930-х годов. Друзья едут по дороге и поют весёлую песенку. Но Пит пытается им помешать…

Доп. инфо: Мультик - доп с БД 3Д "Холодное сердце".
Первые ~1,5 минуты изображение в 2Д, монохромное, малоформатное.



Премьера: 11 июня 2013





Качество: BDRip (by Ash61)
Контейнер: MKV
Формат 3D: Half OverUnder / Вертикальная анаморфная стереопара
Порядок ракурсов: левый ракурс первый
Видео кодек: x264
Аудио кодек: AC3



Видео: AVC / 23,976 fps / 1920х1080p / 4.9 Mbps

Аудио:
#1 - Русский / AC3 / 48 KHz / 5.1 ch / 640 Kbps (VO - datynet)
#2 - Английский / AC3 / 48 KHz / 5.1 ch / 640 Kbps (Original - BD 3D)
#3 - Английский / AC3 / 48 KHz / 2 ch / 320 Kbps (Comments - BD 3D)

Субтитры внешние (SRT UTF-8):
#1 - Русские Полные (alex.n42, edit)
#2 - English Full (BD 3D)
#3 - English SDH (BD 3D)
За русские дорогу и сабы спасибо -Azureus-!

General
Unique ID : 229617295576567887954502011392422978108 (0xACBEAEBA49730999A5B9BB7B1C9A223C)
Complete name : E:GetAHorse(2013)3D-halfOU(Ash61)VOGetAHorse(2013)3D-halfOU(Ash61)VO.mkv
Format : Matroska
Format version : Version 2
File size : 286 MiB
Duration : 6mn 1s
Overall bit rate : 6 628 Kbps
Movie name : Конь-огонь / Get a Horse! (2013) 3D
Encoded date : UTC 2014-03-18 18:54:13
Writing application : mkvmerge v5.8.0 ('No Sleep / Pillow') built on Sep 2 2012 15:37:04
Writing library : libebml v1.2.3 + libmatroska v1.3.0

Video
ID : 1
Format : AVC
Format/Info : Advanced Video Codec
Format profile : High@L4.1
Format settings, CABAC : Yes
Format settings, ReFrames : 4 frames
Codec ID : V_MPEG4/ISO/AVC
Duration : 6mn 1s
Bit rate : 4 897 Kbps
Width : 1 920 pixels
Height : 1 080 pixels
Display aspect ratio : 16:9
Frame rate mode : Constant
Frame rate : 23.976 fps
Color space : YUV
Chroma subsampling : 4:2:0
Bit depth : 8 bits
Scan type : Progressive
Bits/(Pixel*Frame) : 0.098
Stream size : 211 MiB (74%)
Title : BDRip by Ash61
Writing library : x264 core 129 r2245 bc13772
Encoding settings : cabac=1 / ref=4 / deblock=1:-3:-3 / analyse=0x3:0x113 / me=umh / subme=10 / psy=1 / psy_rd=1.00:0.15 / mixed_ref=1 / me_range=32 / chroma_me=1 / trellis=2 / 8x8dct=1 / cqm=0 / deadzone=21,11 / fast_pskip=1 / chroma_qp_offset=-3 / threads=12 / lookahead_threads=2 / sliced_threads=0 / nr=0 / decimate=1 / interlaced=0 / bluray_compat=0 / constrained_intra=0 / bframes=11 / b_pyramid=2 / b_adapt=2 / b_bias=0 / direct=3 / weightb=1 / open_gop=0 / weightp=2 / keyint=250 / keyint_min=23 / scenecut=40 / intra_refresh=0 / rc_lookahead=60 / rc=crf / mbtree=1 / crf=17.0 / qcomp=0.70 / qpmin=0 / qpmax=69 / qpstep=4 / vbv_maxrate=40000 / vbv_bufsize=30000 / crf_max=0.0 / nal_hrd=none / frame-packing=4 / ip_ratio=1.40 / aq=1:0.70
Language : English
Default : Yes
Forced : No

Audio #1
ID : 2
Format : AC-3
Format/Info : Audio Coding 3
Mode extension : CM (complete main)
Format settings, Endianness : Big
Codec ID : A_AC3
Duration : 6mn 1s
Bit rate mode : Constant
Bit rate : 640 Kbps
Channel(s) : 6 channels
Channel positions : Front: L C R, Side: L R, LFE
Sampling rate : 48.0 KHz
Bit depth : 16 bits
Compression mode : Lossy
Stream size : 27.6 MiB (10%)
Title : Одноголосый закадровый - datynet
Language : Russian
Default : Yes
Forced : No

Audio #2
ID : 3
Format : AC-3
Format/Info : Audio Coding 3
Mode extension : CM (complete main)
Format settings, Endianness : Big
Codec ID : A_AC3
Duration : 6mn 1s
Bit rate mode : Constant
Bit rate : 640 Kbps
Channel(s) : 6 channels
Channel positions : Front: L C R, Side: L R, LFE
Sampling rate : 48.0 KHz
Bit depth : 16 bits
Compression mode : Lossy
Stream size : 27.6 MiB (10%)
Title : Original - BD 3D
Language : English
Default : No
Forced : No

Audio #3
ID : 4
Format : AC-3
Format/Info : Audio Coding 3
Format profile : Dolby Digital
Mode extension : CM (complete main)
Format settings, Endianness : Big
Codec ID : A_AC3
Duration : 6mn 1s
Bit rate mode : Constant
Bit rate : 320 Kbps
Channel(s) : 2 channels
Channel positions : Front: L R
Sampling rate : 48.0 KHz
Bit depth : 16 bits
Compression mode : Lossy
Stream size : 13.8 MiB (5%)
Title : Comments
Language : English
Default : No
Forced : No










   Похожие торренты   Торрент   Размер 
В этой теме нет новых непрочитанных сообщений. Конь-огонь / Get a Horse! (2013) BDRip 1080p от Ash61 | 3D-Video | halfOU | Лицензия

80 | 12

285.81 МБ

В этой теме нет новых непрочитанных сообщений. Самолеты: Огонь и вода / Planes: Fire and Rescue (2014) BDRip 1080p от Ash61 | 3D-Video | halfOU

458 | 24

4.48 ГБ

В этой теме нет новых непрочитанных сообщений. Боевой конь / War Horse (2011) BDRip 1080p от HQ-ViDEO | Лицензия

21 | 8

16.34 ГБ

В этой теме нет новых непрочитанных сообщений. Best of 3D (Vol. 1-9) (2013) BDRip 1080p от Ash61 | 3D-Video | halfOU

146 | 133

35.86 ГБ

В этой теме нет новых непрочитанных сообщений. Мистер Гоу / Mi-seu-teo Go / Mr. Go (2013) BDRip 1080p от Ash61 | 3D-Video | halfOU | L1

107 | 67

17.45 ГБ

В этой теме нет новых непрочитанных сообщений. Беги / Run (2013) BDRip 1080p от Ash61 | 3D-Video | halfOU

306 | 180

10.08 ГБ

В этой теме нет новых непрочитанных сообщений. 3Д Шедевры Том 2 / 3D Masterpieces Vol.2 (2013) BDRip 1080p от Ash61 | 3D-Video | halfOU

19 | 3

3.61 ГБ




Вы не можете начинать темы
Вы не можете отвечать на сообщения
Вы не можете редактировать свои сообщения
Вы не можете удалять свои сообщения
Вы не можете добавлять вложения

Перейти:  
Для Мосгорсуда, Роскомнадзора и рекламодателей: mosgorsud-torrent[собачка]yandex.ru
 Вход
ppkBB3cker v.2 © 2008-2014 @ PPK
[ Time : 0.043s | 16 Queries | GZIP : Off ]

cron