img image001 image001 image001 image001 image001 image001 image001 image001 image001 image001 image001 image001 image001 image001 image001

Planets Sun Sun Sun
Статистика раздачи
Автор: Nickolas3434 | Размер: 3.56 ГБ | Добавлен: 21 мар 2014
Раздают: 45    Качают: 40
Скачать торрент
Скачать торрент
Описание торрента

СообщениеДобавлено: 21 мар 2014 

Информация о фильме
Название: Черепашки-ниндзя (2 сезон, 1-12 серии)
Оригинальное название: Teenage Mutant Ninja Turtles
Год выхода: 2013-2014
Жанр: фантастика, боевик, комедия, приключения, семейный
Режиссер: Хуан Хосе Меса-Леон, Алан Ван, Майкл Чанг
В ролях: Джейсон Биггз, Роб Полсен, Шон Астин, Грейг Кипс, Хун Ли, Мэй Уитман, Кевин Майкл Ричардсон, Нолан Норт, Фил ЛаМарр, Келли Ху, Кит Сильверстайн

О фильме: Лео, Раф, Майки и Донни – черепашки-мутанты, научившиеся боевому искусству ниндзюцу у своего сэнсэя Учителя Сплинтера. Выбравшись из канализации на улицы Нью-Йорка, братья оказываются в бурлящем жизнью мегаполисе. Здесь им придется неустанно противостоять самым кровожадным злодеям в истории человечества. В свободное от схваток время ребята занимаются своим любимым делом – дурачатся и едят восхитительную сочную пиццу!
Сражаясь с мастером Шредером, мерзким инопланетянином Крэнгом и толпами сверхмощных мутантов, черепашки учатся стоять друг за друга стеной, чтобы стать теми, кем им предписано быть судьбой – отважными и благородными героями!


Продолжительность: 12 х ~00:24:00
Перевод: Любительский (многоголосый закадровый)
Субтитры: отсутствуют

Файл
Кодек: AVI
Качество: WEB-DLRip
Видео: 720 x 400 (1.80:1), 23.976 fps, XviD build 73 ~1668 kbps avg, 0.242 bit/pixel
Звук:
Аудио: 48 kHz, AC3 Dolby Digital, 2/0 (L,R) ch, ~192 kbps | ZM-SHOW & Green Tea & SkyeFilmTV & Несмертельное Оружие |

Автор рипа: Miheleniya | Семпл

Перевод на русский: Агата Клинцова
Озвучено: ZM-SHOW & Green Tea & SkyeFilmTV & Несмертельное Оружие
Закадровые голоса: ZM [ZM-SHOW], Ульяна Громова и Spellhowler [Green Tea], JonEA [SkyeFilmTV], Lunik [Несмертельное Оружие]
1. Мутационная Ситуация / The Mutation Situation
2. Вторжение "Squirrelanoids" / Invasion Of The Squirrelanoids
3. Следуй За Лидером / Follow the Leader
4. Человек-Мутаген Разбушевался / Mutagen Man Unleashed
5. Майки Получает По Панцирю / Mikey Gets Shellacne
6. Цель: Эйприл О'Нил / Target: April O'Neil
7. Режь И Уничтожай / Slash And Destroy
8. Хороший, Плохой И Кейси Джонс / The Good, The Bad And Casey Jones
9. Заговор Кренгов / The Kraang Conspiracy
10. Гигантский Гриб / Fungus Humungous
11. Переделка Металлоголового / Metalhead Rewired
12. Из Крыс И Людей / Of Rats And Men
Общее
Полное имя : Teenage.Mutant.Ninja.Turtles.2013.S02.[ZM-SHOW]Teenage.Mutant.Ninja.Turtles.2013.S02E01.The.Mutation.Situation.[ZM-SHOW].avi
Формат : AVI
Формат/Информация : Audio Video Interleave
Размер файла : 304 Мбайт
Продолжительность : 22 м.
Общий поток : 1869 Кбит/сек
Программа кодирования : VirtualDubMod 1.5.10.3 | www.virtualdub-fr.org || (build 2550/release)
Библиотека кодирования : VirtualDubMod build 2550/release

Видео
Идентификатор : 0
Формат : MPEG-4 Visual
Профиль формата : Advanced Simple@L5
Параметр BVOP формата : 1
Параметр QPel формата : Нет
Параметр GMC формата : Без точки перехода
Параметр матрицы формата : Выборочная
Идентификатор кодека : XVID
Идентификатор кодека/Подсказка : XviD
Продолжительность : 22 м.
Битрейт : 1668 Кбит/сек
Ширина : 720 пикс.
Высота : 400 пикс.
Соотношение сторон : 16:9
Частота кадров : 23,976 кадр/сек
Цветовое пространство : YUV
Подвыборка цветности : 4:2:0
Битовая глубина : 8 бит
Тип развёртки : Прогрессивная
Метод сжатия : С потерями
Бит/(Пиксели*Кадры) : 0.242
Размер потока : 271 Мбайт (89%)
Библиотека кодирования : XviD 73

Аудио
Идентификатор : 1
Формат : AC-3
Формат/Информация : Audio Coding 3
Расширение режима : CM (complete main)
Идентификатор кодека : 2000
Продолжительность : 22 м.
Вид битрейта : Постоянный
Битрейт : 192 Кбит/сек
Канал(ы) : 2 канала(ов)
Расположение каналов : Front: L R
Частота : 48,0 КГц
Битовая глубина : 16 бит
Метод сжатия : С потерями
Размер потока : 31,2 Мбайт (10%)
Выравнивание : Разделение по промежуткам
Продолжительность промежутка : 42 мс. (1,00 видеокадр)
Время предзагрузки промежутка : 500 ms





   Похожие торренты   Торрент   Размер 
В этой теме нет новых непрочитанных сообщений. Черепашки-ниндзя / Черепашки Мутанты Ниндзя / Teenage Mutant Ninja Turtles [S02x01-07] (2013) WEB-DLRip

27 | 8

1.31 ГБ

В этой теме нет новых непрочитанных сообщений. Черепашки-ниндзя / Черепашки Мутанты Ниндзя / Teenage Mutant Ninja Turtles [02x01-22] (2013-2014) WEB-DLRip

73 | 44

4.11 ГБ

В этой теме нет новых непрочитанных сообщений. Черепашки-ниндзя / Черепашки Мутанты Ниндзя / Teenage Mutant Ninja Turtles [02x01-24] (2013-2014) WEB-DLRip

309 | 53

4.49 ГБ

В этой теме нет новых непрочитанных сообщений. Черепашки-ниндзя / Черепашки Мутанты Ниндзя / Teenage Mutant Ninja Turtles [S02] (2013-2014) WEB-DLRip

211 | 39

4.87 ГБ

В этой теме нет новых непрочитанных сообщений. Черепашки-ниндзя / Черепашки Мутанты Ниндзя / Teenage Mutant Ninja Turtles [02x01-22] (2013) WEB-DLRip

59 | 16

4.07 ГБ

В этой теме нет новых непрочитанных сообщений. Черепашки-ниндзя / Черепашки Мутанты Ниндзя / Teenage Mutant Ninja Turtles [03x01-06] (2014-2015) WEB-DLRip

547 | 66

1.19 ГБ

В этой теме нет новых непрочитанных сообщений. Черепашки-ниндзя / Черепашки Мутанты Ниндзя / Teenage Mutant Ninja Turtles [03x01-08] (2014-2015) WEB-DLRip

381 | 35

1.6 ГБ




Вы не можете начинать темы
Вы не можете отвечать на сообщения
Вы не можете редактировать свои сообщения
Вы не можете удалять свои сообщения
Вы не можете добавлять вложения

Перейти:  
Для Мосгорсуда, Роскомнадзора и рекламодателей: mosgorsud-torrent[собачка]yandex.ru
 Вход
ppkBB3cker v.2 © 2008-2014 @ PPK
[ Time : 0.216s | 15 Queries | GZIP : Off ]

Торрент трекер RUTOR.IN, Не можете зайти на rutor.org? Какой новый адрес рутор? Какое зеркало рутор? Не работает rutor.org и зеркала? Тогда наш торрент специально для вас. Rutor.in неофициальное зеркало rutor. В случае если у Вас заблокирован rutor или вдруг Вы не можете на него зайти, то Вы без труда сможете скачать бесплатно и без рекламы последние новинки кино, игр, сериалов и прочего у нас, на Rutor.in. Не нужно использовать прокси, чтобы зайти на рутор, достаточно воспользоваться нашим ресурсом. Все новые фильмы, игры, сериалы, книги и музыка за 2013 и 2014 годы через торрент бесплатно. Скачивайте фильмы в хорошем качестве, игры для пк, xbox, playstation без регистрации. У нас вы найдете новые Зарубежные сериалы и Русские сериалы 2013, 2014, 2015 годов. Оставайтесь с нами, качайте любимые фильмы, игры, сериалы, книги и музыку.