img image001 image001 image001 image001 image001 image001 image001 image001 image001 image001 image001 image001 image001 image001 image001

Planets Sun Sun Sun
Статистика раздачи
Автор: Nickolas3434 | Размер: 2.34 ГБ | Добавлен: 21 мар 2014
Раздают: 89    Качают: 20
Скачать торрент
Скачать торрент
Описание торрента

СообщениеДобавлено: 21 мар 2014 

Пиноккио
| Pinocchio |


Информация о фильме
Название: Пиноккио
Оригинальное название: Pinocchio
Год выхода: 1940
Жанр: детский, семейный, анимационный
Режиссер: Хэмильтон Ласки, Бен Шарпстин, Норман Фергюсон, Т. Хи, Уилфред Джексон
В ролях: Мэл Бланк, Дон Броди, Уолтер Кэтлетт, Мэрион Дарлингтон, Фрэнки Дарро, Клифф Эдвардс, Дики Джонс, Чарльз Джуделс, Патриция Пейдж, Кристиан Раб

О фильме:
Голубая фея оживила куклу-марионетку, но чтобы стать настоящим человеком, герою надо в добрых делах проявить свою храбрость и честность. И вот длинноносый непоседа и его совестливый друг сверчок Джимини Крикет отправляются навстречу самым невероятным приключениям. Они встретят злого кукольника Стромболи, заглянут на обманчивый Остров удовольствий, где непослушных мальчиков превращают в ослов на продажу, и даже побывают в чреве чудовищного кита, проглотившего отца Пиноккио — мастера Джепетто.



Страна: США
Студия: Walt Disney Pictures
Продолжительность: 01:27:44
Перевод: Дублированный, профессиональный многоголосый, авторский

Файл
Кодек: h.264
Качество: BDRip-AVC
Видео: 2277 Кбит/с, 776x576, 23.976 кадр/с

Звук:
• №1: Русский (AC3, 6 ch, 384 Кбит/с) Дублированный
• №2: Английский (AC3, 6 ch, 384 Кбит/с)
Отдельно:
• №3: Русский (AC3, 2 ch, 192 Кбит/с) Профессиональный многоголосый
• №4: Русский (AC3, 6 ch, 384 Кбит/с) Авторский [Андрей Гаврилов]
• №5: Русский (AC3, 2 ch, 192 Кбит/с) Авторский [Юрий Сербин]

Субтитры: Русские, английские

---------------------------------------------------------------------------------------
x264 [info]: frame I:915 Avg QP:15.34 size: 94908
x264 [info]: frame P:33723 Avg QP:19.27 size: 21962
x264 [info]: frame B:91578 Avg QP:20.41 size: 7329
x264 [info]: consecutive B-frames: 3.1% 4.3% 16.5% 44.8% 17.6% 7.4% 2.0% 1.1% 1.3% 0.5% 0.4% 0.6% 0.4%
---------------------------------------------------------------------------------------

Полное имя : Pinocchio.1940.x264.BDRip-AVC.0ptimus.mkv
Формат : Matroska
Версия формата : Version 2
Размер файла : 1,87 Гбайт
Продолжительность : 1 ч. 27 м.
Общий поток : 3047 Кбит/сек
Название фильма : Пиноккио | Pinocchio [1940] -= BDRip (AVC) by 0ptimus =-
Дата кодирования : UTC 2014-03-20 06:49:43
Программа кодирования : mkvmerge v6.6.0 ('The Edge Of The In Between') built on Dec 1 2013 17:55:00
Библиотека кодирования : libebml v1.3.0 + libmatroska v1.4.1

Видео
Идентификатор : 1
Формат : AVC
Формат/Информация : Advanced Video Codec
Профиль формата : High@L4.1
Параметр CABAC формата : Да
Параметр ReFrames формата : 9 кадров
Идентификатор кодека : V_MPEG4/ISO/AVC
Продолжительность : 1 ч. 27 м.
Битрейт : 2277 Кбит/сек
Ширина : 776 пикселей
Высота : 576 пикселей
Соотношение сторон : 4:3
Режим частоты кадров : Постоянный
Частота кадров : 23,976 кадра/сек
Цветовое пространство : YUV
Субдискретизация насыщенности : 4:2:0
Битовая глубина : 8 бит
Тип развёртки : Прогрессивная
Бит/(Пиксели*Кадры) : 0.212
Размер потока : 1,36 Гбайт (73%)
Заголовок : Rip by 0ptimus
Библиотека кодирования : x264 core 133 r2334 a3ac64b
Настройки программы : cabac=1 / ref=9 / deblock=1:-3:-3 / analyse=0x3:0x113 / me=umh / subme=11 / psy=1 / psy_rd=1.00:0.20 / mixed_ref=1 / me_range=48 / chroma_me=1 / trellis=2 / 8x8dct=1 / cqm=0 / deadzone=21,11 / fast_pskip=0 / chroma_qp_offset=-3 / threads=4 / lookahead_threads=1 / sliced_threads=0 / nr=0 / decimate=0 / interlaced=0 / bluray_compat=0 / constrained_intra=0 / bframes=12 / b_pyramid=2 / b_adapt=2 / b_bias=0 / direct=3 / weightb=1 / open_gop=0 / weightp=2 / keyint=240 / keyint_min=23 / scenecut=40 / intra_refresh=0 / rc_lookahead=40 / rc=2pass / mbtree=0 / bitrate=2277 / ratetol=1.0 / qcomp=0.60 / qpmin=0 / qpmax=69 / qpstep=4 / cplxblur=20.0 / qblur=0.5 / vbv_maxrate=50000 / vbv_bufsize=50000 / nal_hrd=none / ip_ratio=1.40 / pb_ratio=1.30 / aq=1:1.00
Язык : English
Default : Да
Forced : Да

Аудио #1
Идентификатор : 2
Формат : AC-3
Формат/Информация : Audio Coding 3
Расширение режима : CM (complete main)
Параметр Endianness формата : Big
Идентификатор кодека : A_AC3
Продолжительность : 1 ч. 27 м.
Вид битрейта : Постоянный
Битрейт : 384 Кбит/сек
Каналы : 6 каналов
Расположение каналов : Front: L C R, Side: L R, LFE
Частота : 48,0 КГц
Битовая глубина : 16 бит
Метод сжатия : С потерями
Размер потока : 241 Мбайт (13%)
Заголовок : Дубоированный AC3 5.1 @ 384 kbps
Язык : Russian
Default : Да
Forced : Да

Аудио #2
Идентификатор : 3
Формат : AC-3
Формат/Информация : Audio Coding 3
Расширение режима : CM (complete main)
Параметр Endianness формата : Big
Идентификатор кодека : A_AC3
Продолжительность : 1 ч. 27 м.
Вид битрейта : Постоянный
Битрейт : 384 Кбит/сек
Каналы : 6 каналов
Расположение каналов : Front: L C R, Side: L R, LFE
Частота : 48,0 КГц
Битовая глубина : 16 бит
Метод сжатия : С потерями
Размер потока : 241 Мбайт (13%)
Заголовок : AC3 5.1 @ 384 kbps
Язык : English
Default : Нет
Forced : Нет

Текст #1
Идентификатор : 4
Формат : UTF-8
Идентификатор кодека : S_TEXT/UTF8
Идентификатор кодека/Информация : UTF-8 Plain Text
Язык : Russian
Default : Нет
Forced : Нет

Текст #2
Идентификатор : 5
Формат : UTF-8
Идентификатор кодека : S_TEXT/UTF8
Идентификатор кодека/Информация : UTF-8 Plain Text
Язык : English
Default : Нет
Forced : Нет

Меню
00:00:00.000 : en:Opening Credits ("When You Wish Upon A Star")
00:02:21.516 : en:One Night, A Long Time Ago...
00:06:16.584 : en:"Little Wooden Head"
00:11:33.484 : en:Geppetto's Wish
00:15:17.082 : en:The Blue Fairy
00:18:43.705 : en:"Give A Little Whistle"
00:21:33.750 : en:A Wish Come True
00:26:58.366 : en:Off To School
00:28:48.101 : en:Honest John and Gideon
00:30:45.468 : en:Pinocchio Is Led Astray ("Hi Diddle Dee Dee")
00:36:32.440 : en:"I've Got No Strіngs"
00:40:56.328 : en:Pinocchio Taken Prisoner
00:47:43.276 : en:The Blue Fairy Comes To Pinocchio's Aid
00:50:32.654 : en:The Coachman's Proposition
00:53:06.808 : en:Honest John Waylays Pinocchio Again
00:57:06.256 : en:Pleasure Island
00:58:47.899 : en:Later That Night
01:04:06.884 : en:Lampwick Makes a Jackass of Himself
01:06:31.987 : en:Sad Homecoming
01:09:08.894 : en:The Undersea Search For Geppetto
01:14:52.237 : en:Monstro Awakens
01:17:01.283 : en:A Soggy Reunion
01:20:08.470 : en:A Whale of a Sneeze
01:24:29.647 : en:The Dream Fulfilled
01:27:43.257 : en:




Релиз от:



   Похожие торренты   Торрент   Размер 
В этой теме нет новых непрочитанных сообщений. Пиноккио / Pinocchio (1940) BDRip-AVC

66 | 9

1.45 ГБ

В этой теме нет новых непрочитанных сообщений. Пиноккио / Pinocchio (1940) BDRip 720p | 60 fps

51 | 10

4.76 ГБ

В этой теме нет новых непрочитанных сообщений. Пиноккио / Pinocchio (1940) BDRip от HQ-ViDEO

11 | 6

1.65 ГБ

В этой теме нет новых непрочитанных сообщений. Пиноккио / Pinocchio (1940) BDRip 1080p

37 | 4

4.37 ГБ

В этой теме нет новых непрочитанных сообщений. Пиноккио / Pinocchio (1940) BDRip 1080p | 60 fps

104 | 21

6.9 ГБ

В этой теме нет новых непрочитанных сообщений. Пиноккио / Pinocchio (1940) BDRip от HQCLUB

83 | 6

1.45 ГБ

В этой теме нет новых непрочитанных сообщений. Пиноккио / Pinocchio (1940) BDRip 720p от Freeisland

0 | 4

4.38 ГБ




Вы не можете начинать темы
Вы не можете отвечать на сообщения
Вы не можете редактировать свои сообщения
Вы не можете удалять свои сообщения
Вы не можете добавлять вложения

Перейти:  
Для Мосгорсуда, Роскомнадзора и рекламодателей: mosgorsud-torrent[собачка]yandex.ru
 Вход
ppkBB3cker v.2 © 2008-2014 @ PPK
[ Time : 0.044s | 16 Queries | GZIP : Off ]

Торрент трекер RUTOR.IN, Не можете зайти на rutor.org? Какой новый адрес рутор? Какое зеркало рутор? Не работает rutor.org и зеркала? Тогда наш торрент специально для вас. Rutor.in неофициальное зеркало rutor. В случае если у Вас заблокирован rutor или вдруг Вы не можете на него зайти, то Вы без труда сможете скачать бесплатно и без рекламы последние новинки кино, игр, сериалов и прочего у нас, на Rutor.in. Не нужно использовать прокси, чтобы зайти на рутор, достаточно воспользоваться нашим ресурсом. Все новые фильмы, игры, сериалы, книги и музыка за 2013 и 2014 годы через торрент бесплатно. Скачивайте фильмы в хорошем качестве, игры для пк, xbox, playstation без регистрации. У нас вы найдете новые Зарубежные сериалы и Русские сериалы 2013, 2014, 2015 годов. Оставайтесь с нами, качайте любимые фильмы, игры, сериалы, книги и музыку.
cron