img image001 image001 image001 image001 image001 image001 image001 image001 image001 image001 image001 image001 image001 image001 image001

Planets Sun Sun Sun
Статистика раздачи
Автор: Nickolas3434 | Размер: 2.09 ГБ | Добавлен: 25 мар 2014
Раздают: 144    Качают: 50
Скачать торрент
Скачать торрент
Описание торрента

СообщениеДобавлено: 25 мар 2014 

Информация о фильме
Название: Барби: Жемчужная Принцесса
Оригинальное название: Barbie: The Pearl Princess
Год выхода: 2014
Жанр: мультфильм
Режиссер: Терри Классен
В ролях: Келли Шеридан

О фильме: Полнометражный мультфильм Barbie® «Жемчужная принцесса» посвящен приключениям главной героини по имени Лумина. Она работает стилистом в салоне красоты, обладает способностью менять цвет жемчуга и даже не подозревает о том, что на самом деле является принцессой-русалкой. История полна захватывающих приключений, перевоплощений и неожиданных сюжетных поворотов.



Выпущено: США / Universal Pictures
Продолжительность: 01:13:35
Озвучивание: Дублированное [лицензия]

Файл
Кодек: H264
Качество: BDRip (AVC)
Видео: MPEG-4 AVC, 3165 Кбит/с, 1024x576
Звук: Русский, английский (AC3, 6 ch, 448 Кбит/с)
Субтитры: Русские (форсированные), английские (полные, SDH)

General
Unique ID : 197458439109646676517323382692482228216 (0x948D1CB050224123A11EB7A4295D9FF8)
Complete name : C:Barbie.The.Pearl.Princess.2014.D.BDRip.AVC.ExKinoRay.mkv
Format : Matroska
Format version : Version 2
File size : 2.09 GiB
Duration : 1h 13mn
Overall bit rate : 4 060 Kbps
Movie name : Barbie The Pearl Princess from ExKinoRay
Encoded date : UTC 2014-03-24 16:08:40
Writing application : mkvmerge v4.9.1 ('Ich will') built on Jul 11 2011 23:53:15
Writing library : libebml v1.2.1 + libmatroska v1.1.1

Video
ID : 1
Format : AVC
Format/Info : Advanced Video Codec
Format profile : High@L4.1
Format settings, CABAC : Yes
Format settings, ReFrames : 8 frames
Codec ID : V_MPEG4/ISO/AVC
Duration : 1h 13mn
Bit rate : 3 165 Kbps
Width : 1 024 pixels
Height : 576 pixels
Display aspect ratio : 16:9
Frame rate mode : Constant
Frame rate : 23.976 fps
Color space : YUV
Chroma subsampling : 4:2:0
Bit depth : 8 bits
Scan type : Progressive
Bits/(Pixel*Frame) : 0.224
Stream size : 1.58 GiB (76%)
Title : Enigma-Vladislav71
Writing library : x264 core 116 r2044 392e762
Encoding settings : cabac=1 / ref=8 / deblock=1:-2:-2 / analyse=0x3:0x113 / me=umh / subme=9 / psy=1 / psy_rd=1.00:0.20 / mixed_ref=1 / me_range=32 / chroma_me=1 / trellis=2 / 8x8dct=1 / cqm=0 / deadzone=21,11 / fast_pskip=0 / chroma_qp_offset=-3 / threads=12 / sliced_threads=0 / nr=0 / decimate=0 / interlaced=0 / bluray_compat=0 / constrained_intra=0 / bframes=8 / b_pyramid=2 / b_adapt=2 / b_bias=0 / direct=3 / weightb=1 / open_gop=0 / weightp=2 / keyint=240 / keyint_min=23 / scenecut=40 / intra_refresh=0 / rc=2pass / mbtree=0 / bitrate=3165 / ratetol=1.0 / qcomp=0.60 / qpmin=0 / qpmax=69 / qpstep=4 / cplxblur=20.0 / qblur=0.5 / ip_ratio=1.40 / pb_ratio=1.30 / aq=1:1.00
Default : Yes
Forced : No

Audio #1
ID : 2
Format : AC-3
Format/Info : Audio Coding 3
Mode extension : CM (complete main)
Format settings, Endianness : Big
Codec ID : A_AC3
Duration : 1h 13mn
Bit rate mode : Constant
Bit rate : 448 Kbps
Channel(s) : 6 channels
Channel positions : Front: L C R, Side: L R, LFE
Sampling rate : 48.0 KHz
Bit depth : 16 bits
Compression mode : Lossy
Stream size : 236 MiB (11%)
Title : Dub
Language : Russian
Default : Yes
Forced : No

Audio #2
ID : 3
Format : AC-3
Format/Info : Audio Coding 3
Mode extension : CM (complete main)
Format settings, Endianness : Big
Codec ID : A_AC3
Duration : 1h 13mn
Bit rate mode : Constant
Bit rate : 448 Kbps
Channel(s) : 6 channels
Channel positions : Front: L C R, Side: L R, LFE
Sampling rate : 48.0 KHz
Bit depth : 16 bits
Compression mode : Lossy
Stream size : 236 MiB (11%)
Language : English
Default : No
Forced : No

Text #1
ID : 4
Format : UTF-8
Codec ID : S_TEXT/UTF8
Codec ID/Info : UTF-8 Plain Text
Title : Forced
Language : Russian
Default : Yes
Forced : No

Text #2
ID : 5
Format : UTF-8
Codec ID : S_TEXT/UTF8
Codec ID/Info : UTF-8 Plain Text
Title : Full
Language : English
Default : No
Forced : No

Text #3
ID : 6
Format : UTF-8
Codec ID : S_TEXT/UTF8
Codec ID/Info : UTF-8 Plain Text
Title : SDH
Language : English
Default : No
Forced : No

Menu
00:00:00.000 : en:Chapter 1
00:07:42.879 : en:Chapter 2
00:14:55.686 : en:Chapter 3
00:21:46.388 : en:Chapter 4
00:28:38.383 : en:Chapter 5
00:35:36.885 : en:Chapter 6
00:42:18.745 : en:Chapter 7
00:44:31.419 : en:Chapter 8
00:49:25.337 : en:Chapter 9
00:55:03.050 : en:Chapter 10
00:59:48.418 : en:Chapter 11
01:08:15.633 : en:Chapter 12




Релиз от:

Авторы релиза:



   Похожие торренты   Торрент   Размер 
В этой теме нет новых непрочитанных сообщений. Барби: Жемчужная Принцесса / Barbie: The Pearl Princess (2014) BDRip | Лицензия

1192 | 147

1.37 ГБ

В этой теме нет новых непрочитанных сообщений. Барби: Жемчужная Принцесса / Barbie: The Pearl Princess (2014) HDRip от Sanjar & NeoJet | КПК | Лицензия

162 | 11

221.54 МБ

В этой теме нет новых непрочитанных сообщений. Барби: Жемчужная Принцесса / Barbie: The Pearl Princess (2014) BDRip 720 от SuperMin

305 | 32

2.13 ГБ

В этой теме нет новых непрочитанных сообщений. Барби: Принцесса и поп-звезда / Barbie: The Princess & The Popstar (2012) DVDRip-AVC от ExKinoRay

102 | 9

1.45 ГБ

В этой теме нет новых непрочитанных сообщений. Барби: Принцесса и поп-звезда / Barbie: The Princess & The Popstar (2012) DVDRip | Лицензия

192 | 10

1.37 ГБ

В этой теме нет новых непрочитанных сообщений. Барби: Супер Принцесса / Barbie in Princess Power (2015) HDRip от -=HD-NET=- | КПК | Лицензия

250 | 15

314.7 МБ

В этой теме нет новых непрочитанных сообщений. Барби: Супер Принцесса / Barbie in Princess Power (2015) HDRip | D | Лицензия

303 | 35

1.37 ГБ




Вы не можете начинать темы
Вы не можете отвечать на сообщения
Вы не можете редактировать свои сообщения
Вы не можете удалять свои сообщения
Вы не можете добавлять вложения

Перейти:  
Для Мосгорсуда, Роскомнадзора и рекламодателей: mosgorsud-torrent[собачка]yandex.ru
 Вход
ppkBB3cker v.2 © 2008-2014 @ PPK
[ Time : 0.515s | 16 Queries | GZIP : Off ]

Торрент трекер RUTOR.IN, Не можете зайти на rutor.org? Какой новый адрес рутор? Какое зеркало рутор? Не работает rutor.org и зеркала? Тогда наш торрент специально для вас. Rutor.in неофициальное зеркало rutor. В случае если у Вас заблокирован rutor или вдруг Вы не можете на него зайти, то Вы без труда сможете скачать бесплатно и без рекламы последние новинки кино, игр, сериалов и прочего у нас, на Rutor.in. Не нужно использовать прокси, чтобы зайти на рутор, достаточно воспользоваться нашим ресурсом. Все новые фильмы, игры, сериалы, книги и музыка за 2013 и 2014 годы через торрент бесплатно. Скачивайте фильмы в хорошем качестве, игры для пк, xbox, playstation без регистрации. У нас вы найдете новые Зарубежные сериалы и Русские сериалы 2013, 2014, 2015 годов. Оставайтесь с нами, качайте любимые фильмы, игры, сериалы, книги и музыку.