img image001 image001 image001 image001 image001 image001 image001 image001 image001 image001 image001 image001 image001 image001 image001

Planets Sun Sun Sun
Статистика раздачи
Автор: Nickolas3434 | Размер: 749.69 МБ | Добавлен: 26 мар 2014
Раздают: 352    Качают: 151
Скачать торрент
Скачать торрент
Описание торрента

СообщениеДобавлено: 26 мар 2014 


Страна: Япония / Buena Vista Home Entertainment, Hakuhodo DY Media Partners, KDDI Corporation...

Жанр: аниме, мультфильм, драма, биография
Год выпуска: 2013
Продолжительность: 02:01:32

Перевод: Профессиональный (дублированный)
Cубтитры: нет
Оригинальная аудиодорожка: нет

Режиссер: Хаяо Миядзаки / Hayao Miyazaki

В ролях: Джозеф Гордон-Левитт, Джон Красински, Эмили Блант, Мартин Шорт, Стэнли Туччи, Мэнди Пэтинкин, Мэй Уитман, Вернер Херцог, Дженнифер Грей, Уильям Х. Мэйси...

Роли дублировали: Борис Алексеев, Василий Марков, Елена Симанович, Андрей Андреев, Вячеслав Бухтояров...

Описание: Мальчик Дзиро мечтает о полетах и красивых самолетах, способных обогнать ветер. Вот только пилотом ему не стать — он с рождения близорук. Но Дзиро не расстается с мечтой о небе, он начинает придумывать идеальный самолет и со временем становится одним из лучших авиаконструкторов мира. На пути к успеху он не только встретит много интересных людей, переживет Великое землетрясение в Токио и жестокие войны, но и обретет любовь своей жизни — прекрасную Наоко.



Качество: DVDRip / DVD9 R5
Формат: AVI

Видео: 592x320 (1.85:1), 25.000 fps, XviD ~ 725 kbps avg, 0.153 bit/pixel
Аудио: 48 kHz, Dolby MP3, 2 ch, 128 kbps, русский

Раздача от:
Общее
Полное имя : Veter.krepchaet.2013.D.DVDRip.745MB_[New-Team]_by_avproh.avi
Формат : AVI
Формат/Информация : Audio Video Interleave
Размер файла : 750 Мбайт
Продолжительность : 2 ч. 1 м.
Общий поток : 862 Кбит/сек
Программа кодирования : VirtualDubMod 1.5.10.3 | www.virtualdub-fr.org || (build 2550/release)
Библиотека кодирования : VirtualDubMod build 2550/release

Видео
Идентификатор : 0
Формат : MPEG-4 Visual
Профиль формата : Advanced Simple@L5
Параметр BVOP формата : 1
Параметр QPel формата : Нет
Параметр GMC формата : Без точки перехода
Параметр матрицы формата : Выборочная
Идентификатор кодека : XVID
Идентификатор кодека/Подсказка : XviD
Продолжительность : 2 ч. 1 м.
Битрейт : 725 Кбит/сек
Ширина : 592 пикселя
Высота : 320 пикселей
Соотношение сторон : 1,85:1
Частота кадров : 25,000 кадров/сек
Цветовое пространство : YUV
Субдискретизация насыщенности : 4:2:0
Битовая глубина : 8 бит
Тип развёртки : Прогрессивная
Метод сжатия : С потерями
Бит/(Пиксели*Кадры) : 0.153
Размер потока : 630 Мбайт (84%)
Библиотека кодирования : XviD 73

Аудио
Идентификатор : 1
Формат : MPEG Audio
Версия формата : Version 1
Профиль формата : Layer 3
Идентификатор кодека : 55
Идентификатор кодека/Подсказка : MP3
Продолжительность : 2 ч. 1 м.
Вид битрейта : Постоянный
Битрейт : 128 Кбит/сек
Каналы : 2 канала
Частота : 48,0 КГц
Метод сжатия : С потерями
Размер потока : 111 Мбайт (15%)
Выравнивание : Соединение по промежуткам
Продолжительность промежутка : 40 мс. (1,00 видеокадр)
Время предзагрузки промежутка : 504 мс.





   Похожие торренты   Торрент   Размер 
В этой теме нет новых непрочитанных сообщений. Ветер крепчает / Kaze tachinu (2013) DVDRip от New-Team | D | лицензия

1744 | 465

1.46 ГБ

В этой теме нет новых непрочитанных сообщений. Ветер крепчает / Kaze tachinu (2013) DVDRip-AVC от New-Team | D | лицензия

1871 | 451

2.19 ГБ

В этой теме нет новых непрочитанных сообщений. Ветер крепчает / Kaze tachinu (2013) DVD9 R5 от New-Team | D | лицензия

241 | 102

6.1 ГБ

В этой теме нет новых непрочитанных сообщений. Ветер крепчает / Kaze tachinu (2013) DVDRip от Scarabey | Лицензия

252 | 49

1.45 ГБ

В этой теме нет новых непрочитанных сообщений. Ветер крепчает / Kaze tachinu (2013) DVDRip от Scarabey | Лицензия

166 | 37

745.27 МБ

В этой теме нет новых непрочитанных сообщений. Ветер крепчает / Kaze Tachinu / The Wind Rises (2013) BDRip-AVC от HELLYWOOD | Лицензия

186 | 26

2.18 ГБ

В этой теме нет новых непрочитанных сообщений. Ветер крепчает / Kaze Tachinu / The Wind Rises (2013) DVDRip | D

72 | 24

1.92 ГБ




Вы не можете начинать темы
Вы не можете отвечать на сообщения
Вы не можете редактировать свои сообщения
Вы не можете удалять свои сообщения
Вы не можете добавлять вложения

Перейти:  
Для Мосгорсуда, Роскомнадзора и рекламодателей: mosgorsud-torrent[собачка]yandex.ru
 Вход
ppkBB3cker v.2 © 2008-2014 @ PPK
[ Time : 0.033s | 15 Queries | GZIP : Off ]

Торрент трекер RUTOR.IN, Не можете зайти на rutor.org? Какой новый адрес рутор? Какое зеркало рутор? Не работает rutor.org и зеркала? Тогда наш торрент специально для вас. Rutor.in неофициальное зеркало rutor. В случае если у Вас заблокирован rutor или вдруг Вы не можете на него зайти, то Вы без труда сможете скачать бесплатно и без рекламы последние новинки кино, игр, сериалов и прочего у нас, на Rutor.in. Не нужно использовать прокси, чтобы зайти на рутор, достаточно воспользоваться нашим ресурсом. Все новые фильмы, игры, сериалы, книги и музыка за 2013 и 2014 годы через торрент бесплатно. Скачивайте фильмы в хорошем качестве, игры для пк, xbox, playstation без регистрации. У нас вы найдете новые Зарубежные сериалы и Русские сериалы 2013, 2014, 2015 годов. Оставайтесь с нами, качайте любимые фильмы, игры, сериалы, книги и музыку.