img image001 image001 image001 image001 image001 image001 image001 image001 image001 image001 image001 image001 image001 image001 image001

Planets Sun Sun Sun
Статистика раздачи
Автор: Nickolas3434 | Размер: 1.31 ГБ | Добавлен: 29 мар 2014
Раздают: 47    Качают: 3
Скачать торрент
Скачать торрент
Описание торрента

СообщениеДобавлено: 29 мар 2014 

Информация о фильме
Название: Мозаика
Оригинальное название: Mosaic
Год выхода: 2007
Жанр: Mультфильм, фэнтези, боевик, приключения
Режиссер: Рой Аллен Смит
В ролях: Анна Пэкуин, Кирби Морроу, Кэм Кларк, Гари Чок, Николь Оливер, Джим Уорд, Кэтлин Барр, Скотт МакНил, Рон Халдер, Стэн Ли

О фильме: Агенту Интерпола, Натану Нельсону, поручили расследовать ограбление и убийство в музее. Найдя древний артефакт на месте преступления, Нельсен забирает его с собой, чтобы тщательно исследовать находку. Однако он не успевает закончить свое расследование, т. к. оказывается похищен неизвестными силами. Причудливая комбинация сверкающих древних рун, наделеют дочь Натана, Мэги способностью изменять свою внешность по своему желанию. Она может имитировать других людей, разных животных и даже становиться невидимой. Теперь Мэги далжна научиться правильно использовать свои новые супер-способности, чтобы найти своего похищенного отца и раскрыть секреты древней, давно забытой рассы людей.



Страна: США / Film Roman Productions, Manga Entertainment, POW! Entertainment, Voice Box Productions
Продолжительность: 01:09:46
Перевод: Профессиональный, двухголосый
Дата релиза: 26.03.2014

Файл
Кодек: MPEG-4 AVC
Качество: DVDRip (AVC)
Видео: 1024x576, 2500 Кбит/с
Звук: АС3, 2 ch, 192 Кбит/с

Семпл







Unique ID : 225559642085167888655292167878073886122 (0xA9B134F6FC72DACB829FB9C02E3BA5AA)
Complete name : D:Mozaika.2007.x264.DVDRip.(AVC).KinoRay.(Sheikn).mkv
Format : Matroska
Format version : Version 2
File size : 1.31 GiB
Duration : 1h 9mn
Overall bit rate : 2 694 Kbps
Encoded date : UTC 2014-03-26 17:52:36
Writing application : mkvmerge v5.0.1 ('Es ist Sommer') built on Nov 6 2011 16:23:40
Writing library : libebml v1.2.2 + libmatroska v1.3.0
Video #1
ID : 1
Format : AVC
Format/Info : Advanced Video Codec
Format profile : High@L4.1
Format settings, CABAC : Yes
Format settings, ReFrames : 4 frames
Codec ID : V_MPEG4/ISO/AVC
Duration : 1h 9mn
Bit rate : 2 500 Kbps
Width : 1 024 pixels
Height : 576 pixels
Display aspect ratio : 16:9
Original display aspect ratio : 16:9
Frame rate mode : Constant
Frame rate : 25.000 fps
Color space : YUV
Chroma subsampling : 4:2:0
Bit depth : 8 bits
Scan type : Progressive
Bits/(Pixel*Frame) : 0.170
Stream size : 1.19 GiB (91%)
Writing library : x264 core 119 r2106 07efeb4
Encoding settings : cabac=1 / ref=4 / deblock=1:-3:-3 / analyse=0x3:0x113 / me=hex / subme=8 / psy=1 / psy_rd=1.00:0.00 / mixed_ref=0 / me_range=16 / chroma_me=1 / trellis=2 / 8x8dct=1 / cqm=0 / deadzone=21,11 / fast_pskip=1 / chroma_qp_offset=-2 / threads=6 / sliced_threads=0 / nr=0 / decimate=1 / interlaced=0 / bluray_compat=0 / constrained_intra=0 / bframes=4 / b_pyramid=2 / b_adapt=1 / b_bias=0 / direct=1 / weightb=1 / open_gop=0 / weightp=1 / keyint=240 / keyint_min=20 / scenecut=40 / intra_refresh=0 / rc_lookahead=20 / rc=2pass / mbtree=1 / bitrate=2500 / ratetol=1.0 / qcomp=0.60 / qpmin=0 / qpmax=69 / qpstep=4 / cplxblur=20.0 / qblur=0.5 / ip_ratio=1.40 / aq=1:1.00
Default : Yes
Forced : No
Audio #2
ID : 2
Format : AC-3
Format/Info : Audio Coding 3
Mode extension : CM (complete main)
Format settings, Endianness : Big
Codec ID : A_AC3
Duration : 1h 9mn
Bit rate mode : Constant
Bit rate : 192 Kbps
Channel(s) : 2 channels
Channel positions : Front: L R
Sampling rate : 48.0 KHz
Bit depth : 16 bits
Compression mode : Lossy
Stream size : 95.8 MiB (7%)
Default : Yes
Forced : No


Релиз от:



   Похожие торренты   Торрент   Размер 
В этой теме нет новых непрочитанных сообщений. Мозаика / Mosaic (2007) DVDRip

0 | 2

744.32 МБ

В этой теме нет новых непрочитанных сообщений. Золотая Мозаика / Kin`iro Mosaic [01-03 из 12] (2013) HDTV 720p | L

0 | 2

719.7 МБ

В этой теме нет новых непрочитанных сообщений. Космические гонки / Race (2007) DVDRip от KinoRay & Sheikn | P2

48 | 8

1.26 ГБ

В этой теме нет новых непрочитанных сообщений. Приключения Кэти и Макса: Свет перед Рождеством / The Light Before Christmas (2007) DVDRip-AVC от KinoRay & Sheikn

56 | 6

544.12 МБ

В этой теме нет новых непрочитанных сообщений. Приключения Бетси Бабблгам во Вкусляндии / Betsy Bubblegum's Journey Through Yummi-Land (2007) DVDRip от KinoRay & Sheikn | P2

63 | 32

684.76 МБ

В этой теме нет новых непрочитанных сообщений. Хеллбой: Кровь и металл / Hellboy Animated: Blood and Iron (2007) HDRip от KinoRay & Sheikn | P, L2

52 | 3

1.35 ГБ

В этой теме нет новых непрочитанных сообщений. Я – кукла (2001) DVDRip от KinoRay & Sheikn

387 | 34

742.69 МБ




Вы не можете начинать темы
Вы не можете отвечать на сообщения
Вы не можете редактировать свои сообщения
Вы не можете удалять свои сообщения
Вы не можете добавлять вложения

Перейти:  
Для Мосгорсуда, Роскомнадзора и рекламодателей: mosgorsud-torrent[собачка]yandex.ru
 Вход
ppkBB3cker v.2 © 2008-2014 @ PPK
[ Time : 0.103s | 15 Queries | GZIP : Off ]

Торрент трекер RUTOR.IN, Не можете зайти на rutor.org? Какой новый адрес рутор? Какое зеркало рутор? Не работает rutor.org и зеркала? Тогда наш торрент специально для вас. Rutor.in неофициальное зеркало rutor. В случае если у Вас заблокирован rutor или вдруг Вы не можете на него зайти, то Вы без труда сможете скачать бесплатно и без рекламы последние новинки кино, игр, сериалов и прочего у нас, на Rutor.in. Не нужно использовать прокси, чтобы зайти на рутор, достаточно воспользоваться нашим ресурсом. Все новые фильмы, игры, сериалы, книги и музыка за 2013 и 2014 годы через торрент бесплатно. Скачивайте фильмы в хорошем качестве, игры для пк, xbox, playstation без регистрации. У нас вы найдете новые Зарубежные сериалы и Русские сериалы 2013, 2014, 2015 годов. Оставайтесь с нами, качайте любимые фильмы, игры, сериалы, книги и музыку.