img image001 image001 image001 image001 image001 image001 image001 image001 image001 image001 image001 image001 image001 image001 image001

Planets Sun Sun Sun
Статистика раздачи
Автор: Nickolas3434 | Размер: 2.25 ГБ | Добавлен: 29 мар 2014
Раздают: 180    Качают: 18
Скачать торрент
Скачать торрент
Описание торрента

СообщениеДобавлено: 29 мар 2014 

Информация о фильме
Название: Холодное Сердце
Оригинальное название: Frozen
Год выпуска: 2013
Жанр: Комедия, приключения, семейный, фэнтези, мультфильмы
Режиссер: Крис Бак, Дженнифер Ли
В ролях: Кристен Белл, Идина Мензел, Джонатан Грофф, Джош Гад, Сантино Фонтана, Алан Тьюдик, Киаран Хайндс, Крис Уильямс, Стивен Дж. Андерсон, Майа Уилсон

Описание: Когда древнее предсказание сбывается и королевство погружается в объятия вечной зимы, трое бесстрашных героев — принцесса Анна, отважный Кристофф и его верный олень Свен — отправляются в горы, чтобы найти сестру Анны, Эльзу, которая может снять со страны леденящее заклятие. По пути их ждет множество увлекательных сюрпризов и захватывающих приключений: встреча с мистическими троллями, знакомство с очаровательным снеговиком по имени Олаф, горные вершины покруче Эвереста и магия в каждой снежинке. Анне и Кристоффу предстоит сплотиться и противостоять могучей стихии, чтобы спасти королевство и тех, кто им дорог…


Страна: США
Студия: Walt Disney Animation Studios, Walt Disney Pictures
Продолжительность: 01:42:13
Перевод: Дублированный, авторский одноголосый

Файл
Качество: BDRip (AVC)
Видео: MPEG-4 AVC, 1800 Кбит/с, 1024x456, 23.976 кадр/с
Аудио #1: Русский (AC3, 6 ch, 448 Кбит/с) / Дублированный (Лицензия)
Аудио #2: Русский (AC3, 6 ch, 448 Кбит/с) / Авторский одноголосый (Живов)
Аудио #3: Английский (AC3, 6 ch, 448 Кбит/с)
Субтитры: Русские, английские

Семпл



x264 [info]: frame I:1246  Avg QP:14.70  size: 84338
x264 [info]: frame P:38900 Avg QP:19.17  size: 18396
x264 [info]: frame B:106901 Avg QP:22.82  size:  5230
x264 [info]: consecutive B-frames:  3.4%  4.4% 13.0% 44.6% 14.5% 17.6%  1.3%  0.7%  0.2%  0.2%  0.0%
x264 [info]: mb I  I16..4: 15.5% 49.9% 34.6%
x264 [info]: mb P  I16..4:  1.0%  6.5%  2.2%  P16..4: 25.4% 26.7% 12.1%  0.0%  0.0%    skip:26.1%
x264 [info]: mb B  I16..4:  0.1%  1.2%  0.3%  B16..8: 25.1% 11.5%  2.6%  direct: 2.3%  skip:56.9%  L0:37.6% L1:47.1% BI:15.2%
x264 [info]: 8x8 transform intra:65.7% inter:47.7%
x264 [info]: direct mvs  spatial:89.8% temporal:10.2%
x264 [info]: coded y,uvDC,uvAC intra: 82.8% 79.8% 61.7% inter: 12.7% 11.6% 6.9%
x264 [info]: i16 v,h,dc,p: 12% 16%  7% 65%
x264 [info]: i8 v,h,dc,ddl,ddr,vr,hd,vl,hu: 11% 10%  5%  9% 13% 11% 15% 11% 16%
x264 [info]: i4 v,h,dc,ddl,ddr,vr,hd,vl,hu: 14%  9%  6%  9% 14% 12% 13% 11% 13%
x264 [info]: i8c dc,h,v,p: 38% 25% 18% 19%
x264 [info]: Weighted P-Frames: Y:2.4% UV:1.7%
x264 [info]: ref P L0: 59.1%  9.3% 13.5%  5.6%  3.5%  3.3%  2.3%  1.6%  1.4%  0.3%  0.0%
x264 [info]: ref B L0: 85.1%  6.9%  3.6%  1.5%  1.2%  0.9%  0.6%  0.2%
x264 [info]: ref B L1: 94.1%  5.9%
x264 [info]: kb/s:1799.74
Общее
Уникальный идентификатор : 172007928556600300549313353086864996794 (0x816785A39F220EDB81165286FCD039BA)
Полное имя : D:Mои раздачиFrozen.2013.BDRip.(AVC)-MediaClub.mkv
Формат : Matroska
Версия формата : Version 4 / Version 2
Размер файла : 2,25 Гбайт
Продолжительность : 1 ч. 42 м.
Общий поток : 3146 Кбит/сек
Название фильма : -=MediaClub-kaspr=-
Дата кодирования : UTC 2014-03-27 06:27:44
Программа кодирования : mkvmerge v6.8.0 ('Theme for Great Cities') 64bit built on Mar 2 2014 21:34:26
Библиотека кодирования : libebml v1.3.0 + libmatroska v1.4.1

Видео
Идентификатор : 1
Формат : AVC
Формат/Информация : Advanced Video Codec
Профиль формата : High@L4.1
Параметр CABAC формата : Да
Параметр ReFrames формата : 9 кадров
Идентификатор кодека : V_MPEG4/ISO/AVC
Продолжительность : 1 ч. 42 м.
Битрейт : 1800 Кбит/сек
Ширина : 1024 пикселя
Высота : 456 пикселей
Соотношение сторон : 2,25:1
Режим частоты кадров : Постоянный
Частота кадров : 23,976 кадра/сек
Цветовое пространство : YUV
Субдискретизация насыщенности : 4:2:0
Битовая глубина : 8 бит
Тип развёртки : Прогрессивная
Бит/(Пиксели*Кадры) : 0.161
Размер потока : 1,24 Гбайт (55%)
Заголовок : -=MediaClub-kaspr=-
Библиотека кодирования : x264 core 142 r2389+41 02cb608 tMod [8-bit@4:2:0 X86_64]
Настройки программы : cabac=1 / ref=9 / deblock=1:-3:-3 / analyse=0x3:0x113 / me=umh / subme=11 / psy=1 / fade_compensate=0.00 / psy_rd=1.00:0.20 / mixed_ref=1 / me_range=32 / chroma_me=1 / trellis=2 / 8x8dct=1 / cqm=0 / deadzone=21,11 / fast_pskip=0 / chroma_qp_offset=-3 / threads=12 / lookahead_threads=3 / sliced_threads=0 / nr=0 / decimate=0 / interlaced=0 / bluray_compat=0 / constrained_intra=0 / fgo=0 / bframes=10 / b_pyramid=2 / b_adapt=2 / b_bias=0 / direct=3 / weightb=1 / open_gop=0 / weightp=2 / keyint=240 / keyint_min=23 / scenecut=40 / intra_refresh=0 / rc_lookahead=40 / rc=2pass / mbtree=1 / bitrate=1800 / ratetol=1.0 / qcomp=0.60 / qpmin=0:0:0 / qpmax=69:69:69 / qpstep=4 / cplxblur=20.0 / qblur=0.5 / ip_ratio=1.40 / aq=2:0.80 / aq-sensitivity=10.00 / aq-factor=1.00:1.00:1.00 / aq2=0 / aq3=0
Default : Да
Forced : Да

Аудио #1
Идентификатор : 2
Формат : AC-3
Формат/Информация : Audio Coding 3
Расширение режима : CM (complete main)
Параметр Endianness формата : Big
Идентификатор кодека : A_AC3
Продолжительность : 1 ч. 42 м.
Вид битрейта : Постоянный
Битрейт : 448 Кбит/сек
Каналы : 6 каналов
Расположение каналов : Front: L C R, Side: L R, LFE
Частота : 48,0 КГц
Битовая глубина : 16 бит
Метод сжатия : С потерями
Размер потока : 328 Мбайт (14%)
Заголовок : Дубляж
Язык : Russian
Default : Да
Forced : Да

Аудио #2
Идентификатор : 3
Формат : AC-3
Формат/Информация : Audio Coding 3
Расширение режима : CM (complete main)
Параметр Endianness формата : Big
Идентификатор кодека : A_AC3
Продолжительность : 1 ч. 42 м.
Вид битрейта : Постоянный
Битрейт : 448 Кбит/сек
Каналы : 6 каналов
Расположение каналов : Front: L C R, Side: L R, LFE
Частота : 48,0 КГц
Битовая глубина : 16 бит
Метод сжатия : С потерями
Размер потока : 328 Мбайт (14%)
Заголовок : Живов
Язык : Russian
Default : Нет
Forced : Нет

Аудио #3
Идентификатор : 4
Формат : AC-3
Формат/Информация : Audio Coding 3
Расширение режима : CM (complete main)
Параметр Endianness формата : Big
Идентификатор кодека : A_AC3
Продолжительность : 1 ч. 42 м.
Вид битрейта : Постоянный
Битрейт : 448 Кбит/сек
Каналы : 6 каналов
Расположение каналов : Front: L C R, Side: L R, LFE
Частота : 48,0 КГц
Битовая глубина : 16 бит
Метод сжатия : С потерями
Размер потока : 328 Мбайт (14%)
Язык : English
Default : Нет
Forced : Нет

Текст #1
Идентификатор : 5
Формат : UTF-8
Идентификатор кодека : S_TEXT/UTF8
Идентификатор кодека/Информация : UTF-8 Plain Text
Язык : Russian
Default : Нет
Forced : Нет

Текст #2
Идентификатор : 6
Формат : UTF-8
Идентификатор кодека : S_TEXT/UTF8
Идентификатор кодека/Информация : UTF-8 Plain Text
Язык : English
Default : Нет
Forced : Нет

Меню
00:00:00.000 : en:Chapter 01
00:05:59.817 : en:Chapter 02
00:11:37.946 : en:Chapter 03
00:19:53.734 : en:Chapter 04
00:31:03.194 : en:Chapter 05
00:38:39.483 : en:Chapter 06
00:44:21.283 : en:Chapter 07
00:50:51.506 : en:Chapter 08
00:57:48.381 : en:Chapter 09
01:02:57.398 : en:Chapter 10
01:09:36.046 : en:Chapter 11
01:13:34.868 : en:Chapter 12
01:18:07.599 : en:Chapter 13
01:22:33.740 : en:Chapter 14
01:27:10.808 : en:Chapter 15
01:32:33.506 : en:Chapter 16


Релиз: |



   Похожие торренты   Торрент   Размер 
В этой теме нет новых непрочитанных сообщений. Холодное сердце / Frozen (2013) BDRip-AVC от MediaClub | Чистый звук

2514 | 89

1.79 ГБ

В этой теме нет новых непрочитанных сообщений. Холодное сердце / Frozen (2013) BDRip 1080p | D | Лицензия | 48 fps

1991 | 84

6.72 ГБ

В этой теме нет новых непрочитанных сообщений. Холодное сердце / Frozen (2013) BDRip-AVC от HELLYWOOD | Лицензия

751 | 28

2.19 ГБ

В этой теме нет новых непрочитанных сообщений. Холодное сердце / Frozen (2013) BDRip-AVC от HELLYWOOD | Лицензия

6734 | 183

1.47 ГБ

В этой теме нет новых непрочитанных сообщений. Холодное сердце / Frozen (2013) BDRip-AVC от ExKinoRay | D, A | Лицензия

227 | 15

2.92 ГБ

В этой теме нет новых непрочитанных сообщений. Холодное сердце / Frozen (2013) BDRip-AVC от New-Team | Лицензия

1443 | 77

744.8 МБ

В этой теме нет новых непрочитанных сообщений. Холодное сердце / Frozen (2013) BDRip от HQCLUB | Лицензия

1787 | 100

2.18 ГБ




Вы не можете начинать темы
Вы не можете отвечать на сообщения
Вы не можете редактировать свои сообщения
Вы не можете удалять свои сообщения
Вы не можете добавлять вложения

Перейти:  
Для Мосгорсуда, Роскомнадзора и рекламодателей: mosgorsud-torrent[собачка]yandex.ru
 Вход
ppkBB3cker v.2 © 2008-2014 @ PPK
[ Time : 0.036s | 16 Queries | GZIP : Off ]

cron