img image001 image001 image001 image001 image001 image001 image001 image001 image001 image001 image001 image001 image001 image001 image001

Planets Sun Sun Sun
Статистика раздачи
Автор: Nickolas3434 | Размер: 598.9 МБ | Добавлен: 29 мар 2014
Раздают: 51    Качают: 7
Скачать торрент
Скачать торрент
Описание торрента

СообщениеДобавлено: 29 мар 2014 

Страна: СССР
Жанр: мультфильм, короткометражка, комедия, семейный
Год выпуска: 1982-1984
Продолжительность: серия ~ 8 минут

Перевод: не требуется
Оригинальная аудиодорожка: русский
Cубтитры: нет

Режиссеры: Олег Чуркин, Борис Акулиничев

Роли озвучивали:
Петр Вишняков, Георгий Вицин, Н. Бочкарев, Клара Румянова...

Описание:
О приключениях бездомного пса Тишки, который в Бюро находок стал опытным детективом...





Исходник: DVD5 R5
Тип релиза: DVDRip
Контейнер: AVI

Видео: 672х512, (4:3), 25 fps, XviD ~ 2022 kbps avg, 0.235 bit/pixel
Аудио: 48 kHz, Dolby Digital AC3 5.1, 448 kbps

Раздача от:
Общее
Полное имя : Byuro.nahodok.1982.DVDRip_[New-team]_by_AVP_Studio\01.avi
Формат : AVI
Формат/Информация : Audio Video Interleave
Размер файла : 165 Мбайт
Продолжительность : 9 м. 17 с.
Общий поток : 2479 Кбит/сек
Программа кодирования : VirtualDubModRus 1.5.10.2 (build 2542/release)
Библиотека кодирования : VirtualDubMod build 2542/release

Видео
Идентификатор : 0
Формат : MPEG-4 Visual
Профиль формата : Advanced Simple@L5
Параметр BVOP формата : 1
Параметр QPel формата : Нет
Параметр GMC формата : Без точки перехода
Параметр матрицы формата : Выборочная
Идентификатор кодека : XVID
Идентификатор кодека/Подсказка : XviD
Продолжительность : 9 м. 17 с.
Битрейт : 2022 Кбит/сек
Ширина : 672 пикселя
Высота : 512 пикселей
Соотношение сторон : 4:3
Частота кадров : 25,000 кадров/сек
Цветовое пространство : YUV
Субдискретизация насыщенности : 4:2:0
Битовая глубина : 8 бит
Тип развёртки : Прогрессивная
Метод сжатия : С потерями
Бит/(Пиксели*Кадры) : 0.235
Размер потока : 134 Мбайт (82%)
Библиотека кодирования : XviD 73

Аудио
Идентификатор : 1
Формат : AC-3
Формат/Информация : Audio Coding 3
Расширение режима : CM (complete main)
Параметр Endianness формата : Big
Идентификатор кодека : 2000
Продолжительность : 9 м. 17 с.
Вид битрейта : Постоянный
Битрейт : 448 Кбит/сек
Каналы : 6 каналов
Расположение каналов : Front: L C R, Side: L R, LFE
Частота : 48,0 КГц
Битовая глубина : 16 бит
Метод сжатия : С потерями
Задержка видео : 16 мс.
Размер потока : 29,8 Мбайт (18%)
Выравнивание : Разделение по промежуткам
Продолжительность промежутка : 40 мс. (1,00 видеокадр)
Время предзагрузки промежутка : 500 мс





   Похожие торренты   Торрент   Размер 
В этой теме нет новых непрочитанных сообщений. Бюро находок (1982-1984) DVDRip-AVC от New-Team

289 | 17

603.17 МБ

В этой теме нет новых непрочитанных сообщений. Бюро находок / Lost and Found (2008) WEBRip AVC от SuperMin

23 | 6

410.46 МБ

В этой теме нет новых непрочитанных сообщений. Класс 1984 / Class of 1984 (1982) DVDRip от Кинорадиомагия | A

282 | 10

1.37 ГБ

В этой теме нет новых непрочитанных сообщений. Класс 1984 / Class of 1984 (1982) BDRip 1080p от NNNB | A

82 | 38

7.76 ГБ

В этой теме нет новых непрочитанных сообщений. Класс 1984 / Class of 1984 (1982) BDRemux 1080p | A

16 | 7

28.28 ГБ

В этой теме нет новых непрочитанных сообщений. Бюро убийств / The Assassination Bureau (1969) DVDRip | P

135 | 10

1.46 ГБ

В этой теме нет новых непрочитанных сообщений. Сашка (1982) DVDRip от New-Team

10 | 6

744.53 МБ




Вы не можете начинать темы
Вы не можете отвечать на сообщения
Вы не можете редактировать свои сообщения
Вы не можете удалять свои сообщения
Вы не можете добавлять вложения

Перейти:  
Для Мосгорсуда, Роскомнадзора и рекламодателей: mosgorsud-torrent[собачка]yandex.ru
 Вход
ppkBB3cker v.2 © 2008-2014 @ PPK
[ Time : 0.025s | 15 Queries | GZIP : Off ]

Торрент трекер RUTOR.IN, Не можете зайти на rutor.org? Какой новый адрес рутор? Какое зеркало рутор? Не работает rutor.org и зеркала? Тогда наш торрент специально для вас. Rutor.in неофициальное зеркало rutor. В случае если у Вас заблокирован rutor или вдруг Вы не можете на него зайти, то Вы без труда сможете скачать бесплатно и без рекламы последние новинки кино, игр, сериалов и прочего у нас, на Rutor.in. Не нужно использовать прокси, чтобы зайти на рутор, достаточно воспользоваться нашим ресурсом. Все новые фильмы, игры, сериалы, книги и музыка за 2013 и 2014 годы через торрент бесплатно. Скачивайте фильмы в хорошем качестве, игры для пк, xbox, playstation без регистрации. У нас вы найдете новые Зарубежные сериалы и Русские сериалы 2013, 2014, 2015 годов. Оставайтесь с нами, качайте любимые фильмы, игры, сериалы, книги и музыку.