img image001 image001 image001 image001 image001 image001 image001 image001 image001 image001 image001 image001 image001 image001 image001

Planets Sun Sun Sun
Статистика раздачи
Автор: Nickolas3434 | Размер: 21.89 ГБ | Добавлен: 29 мар 2014
Раздают: 324    Качают: 173
Скачать торрент
Скачать торрент
Описание торрента

СообщениеДобавлено: 29 мар 2014 


Информация о фильме
Название: Феи: Загадка пиратского острова / The Pirate Fairy
Год выпуска: 2014
Жанр: Мультфильм, фэнтези, детский, приключения
Режиссер: Пегги Холмс
В ролях: Том Хиддлстон, Кристина Хендрикс, Мэй Уитман


Описание:
Феи — это маленькие существа природы, обладают особыми, волшебными способностями. Одной из таких есть, Динь — Динь, она родилась из первого смеха младенца с зонтиком одуванчика, они прилетели в Долину Фей, на волшебный остров Нетландия. Там юное создание перепробовала много чего, пока не узнала, что ее предназначение быть мастерицей. Динь — Динь, постоянно искала приключения, на свою голову. Ее подруги Иридесса — фея света, Розетта — садовая фея, фея всех животных и птиц — Фауна, также фея воды — Серебрянка, спасают горе подругу от нелепых ситуаций. Они помогают Динь — динь, разобраться во всем. И у фей новое приключение, все они оказались далеко от долины, на большом острове, раньше там никому из фей не доводилось быть.






* Этим фильмом Пегги Холмс хотела отдать должное пьесе Дж. М. Барри «Питер Пэн» 1904 года и одноименной книге, которая в 1953 году вдохновила Уолта Диснея на съемку анимационного фильма.
* Съемочная группа стремилась сделать пиратский корабль максимально реалистичным. Для этого художники и декораторы сделали вылазку на побережье, чтобы изучить теорию кораблестроения, ознакомиться с некоторыми профессиональными терминами, понять устройство морского судна.

Озвучивание: Дублированное [Чистый звук]
Перевод субтитров: Elm, jasinpapa, alesyasparrow [Notabenoid]
Сохранены оригинальные чаптеры как на Blu-ray.
Рип делал Ясин папа (:


Продолжительность: 01:18:05
Выпущено: США, DisneyToon Studios, Prana Studios
Перевод: Дублированный [Чистый звук]
Субтитры: Русские, английские
Дополнительно: Сохранены оригинальные чаптеры как на Blu-ray
Файл
Формат: MKV
Качество: Blu-Ray Remux 1080p
Видео: MPEG-4 AVC, 31488 Kбит/с, 1920x1080, 23.976 кадр/с
Аудио: Русский (AC3, 2 ch, 384 Кбит/с), французский, испанский (AC3, 6 ch, 448 Кбит/с), английский (AC3, 6 ch, 448 Кбит/с), (DTS, 6 ch, 1509 Кбит/с), (DTS-HD, 8 ch, 5467 Кбит/с)

Общее
Уникальный идентификатор : 226366569736014233657882308002641536585 (0xAA4C9D91D1D3E8F3A259E8CA6D32E649)
Полное имя : J:МульфильмыThe.Pirate.Fairy.2014.1080p.BluRay.AVC.DTS-HD.MA.7.1-PublicHDThe.Pirate.Fairy.2014.1080p.BluRay.AVC.DTS-HD.MA.7.1.[jasinpapa].mkv
Формат : Matroska
Версия формата : Version 4 / Version 2
Размер файла : 21,9 Гбайт
Продолжительность : 1 ч. 18 м.
Режим общего битрейта : Переменный
Общий поток : 40,1 Мбит/сек
Дата кодирования : UTC 2014-03-27 18:10:23
Программа кодирования : mkvmerge v6.1.0 ('Old Devil') built on Mar 2 2013 14:32:37
Библиотека кодирования : libebml v1.3.0 + libmatroska v1.4.0
Видео
Идентификатор : 4
Формат : AVC
Формат/Информация : Advanced Video Codec
Профиль формата : High@L4.1
Параметр CABAC формата : Да
Параметр ReFrames формата : 4 кадра
Идентификатор кодека : V_MPEG4/ISO/AVC
Продолжительность : 1 ч. 18 м.
Вид битрейта : Переменный
Максимальный битрейт : 33,2 Мбит/сек
Ширина : 1920 пикселей
Высота : 1080 пикселей
Соотношение сторон : 16:9
Режим частоты кадров : Постоянный
Частота кадров : 23,976 кадра/сек
Цветовое пространство : YUV
Субдискретизация насыщенности : 4:2:0
Битовая глубина : 8 бит
Тип развёртки : Прогрессивная
Default : Да
Forced : Нет
Аудио #1
Идентификатор : 1
Формат : AC-3
Формат/Информация : Audio Coding 3
Расширение режима : CM (complete main)
Параметр Endianness формата : Big
Идентификатор кодека : A_AC3
Продолжительность : 1 ч. 18 м.
Вид битрейта : Постоянный
Битрейт : 640 Кбит/сек
Каналы : 6 каналов
Расположение каналов : Front: L C R, Side: L R, LFE
Частота : 48,0 КГц
Битовая глубина : 16 бит
Метод сжатия : С потерями
Размер потока : 358 Мбайт (2%)
Заголовок : Французский, 640 Кбит/c, 6 каналов, AC-3
Язык : French
Default : Нет
Forced : Нет
Аудио #2
Идентификатор : 2
Формат : AC-3
Формат/Информация : Audio Coding 3
Расширение режима : CM (complete main)
Параметр Endianness формата : Big
Идентификатор кодека : A_AC3
Продолжительность : 1 ч. 18 м.
Вид битрейта : Постоянный
Битрейт : 640 Кбит/сек
Каналы : 6 каналов
Расположение каналов : Front: L C R, Side: L R, LFE
Частота : 48,0 КГц
Битовая глубина : 16 бит
Метод сжатия : С потерями
Размер потока : 358 Мбайт (2%)
Заголовок : Испанский, 640 Кбит/c, 6 каналов, AC-3
Язык : Spanish
Default : Нет
Forced : Нет
Аудио #3
Идентификатор : 5
Формат : DTS
Формат/Информация : Digital Theater Systems
Профиль формата : MA / Core
Режим : 16
Параметр Endianness формата : Big
Идентификатор кодека : A_DTS
Продолжительность : 1 ч. 18 м.
Вид битрейта : Переменный
Битрейт : Неизвестно / 1509 Кбит/сек
Каналы : 8 каналов / 6 каналов
Расположение каналов : Front: L C R, Side: L R, Back: L R, LFE / Front: L C R, Side: L R, LFE
Частота : 48,0 КГц
Битовая глубина : 24 бит
Метод сжатия : Без потерь / Lossy
Заголовок : English DTS 6ch
Язык : English
Default : Нет
Forced : Нет
Аудио #4
Идентификатор : 6
Формат : DTS
Формат/Информация : Digital Theater Systems
Режим : 16
Параметр Endianness формата : Big
Идентификатор кодека : A_DTS
Продолжительность : 1 ч. 18 м.
Вид битрейта : Постоянный
Битрейт : 1509 Кбит/сек
Каналы : 6 каналов
Расположение каналов : Front: L C R, Side: L R, LFE
Частота : 48,0 КГц
Битовая глубина : 24 бит
Метод сжатия : С потерями
Размер потока : 843 Мбайт (4%)
Заголовок : DTS HD-MA 8ch
Язык : English
Default : Нет
Forced : Нет
Аудио #5
Идентификатор : 8
Формат : AC-3
Формат/Информация : Audio Coding 3
Расширение режима : CM (complete main)
Параметр Endianness формата : Big
Идентификатор кодека : A_AC3
Продолжительность : 1 ч. 18 м.
Вид битрейта : Постоянный
Битрейт : 384 Кбит/сек
Каналы : 2 канала
Расположение каналов : Front: L R
Частота : 48,0 КГц
Битовая глубина : 16 бит
Метод сжатия : С потерями
Размер потока : 215 Мбайт (1%)
Заголовок : Русский
Default : Да
Forced : Нет
Аудио #6
Идентификатор : 9
Формат : AC-3
Формат/Информация : Audio Coding 3
Расширение режима : CM (complete main)
Параметр Endianness формата : Big
Идентификатор кодека : A_AC3
Продолжительность : 1 ч. 18 м.
Вид битрейта : Постоянный
Битрейт : 384 Кбит/сек
Каналы : 6 каналов
Расположение каналов : Front: L C R, Side: L R, LFE
Частота : 48,0 КГц
Битовая глубина : 16 бит
Метод сжатия : С потерями
Размер потока : 215 Мбайт (1%)
Заголовок : English AC3
Default : Нет
Forced : Нет
Текст #1
Идентификатор : 3
Формат : UTF-8
Идентификатор кодека : S_TEXT/UTF8
Идентификатор кодека/Информация : UTF-8 Plain Text
Язык : English
Default : Нет
Forced : Нет
Текст #2
Идентификатор : 7
Формат : UTF-8
Идентификатор кодека : S_TEXT/UTF8
Идентификатор кодека/Информация : UTF-8 Plain Text
Заголовок : Russian, Notabenoid
Язык : Russian
Default : Нет
Forced : Нет
Меню
00:00:00.000 : en:00:00:00.000
00:04:05.996 : en:00:04:05.996
00:07:36.665 : en:00:07:36.665
00:14:32.747 : en:00:14:32.747
00:20:17.925 : en:00:20:17.925
00:28:10.814 : en:00:28:10.814
00:33:03.607 : en:00:33:03.607
00:40:12.201 : en:00:40:12.201
00:45:53.334 : en:00:45:53.334
00:53:51.520 : en:00:53:51.520
01:03:41.609 : en:01:03:41.609
01:08:40.742 : en:01:08:40.742







   Похожие торренты   Торрент   Размер 
В этой теме нет новых непрочитанных сообщений. Феи: Загадка пиратского острова / The Pirate Fairy (2014) BDRip 1080p | Чистый звук

172 | 214

3.99 ГБ

В этой теме нет новых непрочитанных сообщений. Феи: Загадка пиратского острова / The Pirate Fairy (2014) HDRip | Чистый звук

7346 | 563

1.37 ГБ

В этой теме нет новых непрочитанных сообщений. Феи: Загадка пиратского острова / The Pirate Fairy (2014) BDRip-AVC от ExKinoRay | Чистый звук

990 | 110

2.14 ГБ

В этой теме нет новых непрочитанных сообщений. Феи: Загадка пиратского острова / The Pirate Fairy (2014) BDRemux от ExKinoRay | D | Чистый звук

84 | 27

20.16 ГБ

В этой теме нет новых непрочитанных сообщений. Феи: Загадка пиратского острова / The Pirate Fairy (2014) BDRip 720p | Чистый звук

1120 | 116

2.85 ГБ

В этой теме нет новых непрочитанных сообщений. Феи: Загадка пиратского острова / The Pirate Fairy (2014) HDRip от Deadmauvlad | Чистый звук

1775 | 280

747.31 МБ

В этой теме нет новых непрочитанных сообщений. Феи: Загадка пиратского острова / The Pirate Fairy (2014) BDRip 720p от Leonardo and Scarabey | Чистый звук

1366 | 313

2.84 ГБ




Вы не можете начинать темы
Вы не можете отвечать на сообщения
Вы не можете редактировать свои сообщения
Вы не можете удалять свои сообщения
Вы не можете добавлять вложения

Перейти:  
Для Мосгорсуда, Роскомнадзора и рекламодателей: mosgorsud-torrent[собачка]yandex.ru
 Вход
ppkBB3cker v.2 © 2008-2014 @ PPK
[ Time : 0.043s | 15 Queries | GZIP : Off ]

cron