img image001 image001 image001 image001 image001 image001 image001 image001 image001 image001 image001 image001 image001 image001 image001

Planets Sun Sun Sun
Статистика раздачи
Автор: Nickolas3434 | Размер: 3.39 ГБ | Добавлен: 29 мар 2014
Раздают: 28    Качают: 12
Скачать торрент
Скачать торрент
Описание торрента

СообщениеДобавлено: 29 мар 2014 




Информация
Название: Спецагент Арчер / Archer
Год выпуска: 2014
Жанр: Анимационный мультсериал, шпионская комедия
Режиссеры: Адам Рид, Брайан Фордни
Персонажи: Х. Джон Бенжамин, Джуди Грир, Эмбер Нэш, Крис Парнелл, Аиша Тайлер, Джессика Уолтер, Адам Рид


Описание:
В международном шпионском агенстве ISIS любой мировой кризис - лишь предлог для высококлассных секретных агентов посоревноваться между собой в обмане и предательстве. Главным героем мультсериала является спецагент Стерлинг Арчер, известный также под кодовым именем «Герцогиня». На службе Арчеру приходится мириться со своей эксцентричной мамашей/начальницей - Мэлори, бывшей подружкой Ланой, озабоченной секретаршей Шерил и другими «интересными личностями».



Озвучка: Руслан Габидуллин, Константин Погодаев, Ольга Кравцова, Анна Тух (Кубик в кубе & Бяко Рекордс)
Перевод: Opel
Подготовка видео: Koss
Работа со звуком: Cherry
Постер: Vortex


Продолжительность: ~ 00:21:00
Выпущено: США, FX Network, Floyd County Productions
Перевод: Многоголосый закадровый, профессиональный
Файл
Формат: MKV
Качество: WEB-DLRip 720p
Видео: MPEG-4 AVC/H.264, ~3790 кбит/с, 1280 x 718
Аудио: Аудио #1: Русский, AC3, 5.1, 384 кбит/с; Аудио #2: Английский, AC3, 5.1, 384 кбит/с

Общее
Уникальный идентификатор : 206677603385777364389855784757200358013 (0x9B7CA894BBA706DDAFF20FF710930A7D)
Полное имя : Archer.05.season.2014.WEB-DLRip.720p.NewStudio.TVarcher.s05e01.webdl.720p_NewStudio.TV.mkv
Формат : Matroska
Версия формата : Version 2
Размер файла : 660 Мбайт
Продолжительность : 19 м.
Общий поток : 4650 Кбит/сек
Дата кодирования : UTC 2014-02-09 06:21:37
Программа кодирования : mkvmerge v2.9.9 ('Tutu') built on Nov 25 2009 21:13:32
Библиотека кодирования : libebml v0.7.9 + libmatroska v0.8.1
Видео
Идентификатор : 1
Формат : AVC
Формат/Информация : Advanced Video Codec
Профиль формата : High@L3.1
Параметр CABAC формата : Нет
Параметр ReFrames формата : 2 кадра
Идентификатор кодека : V_MPEG4/ISO/AVC
Продолжительность : 19 м.
Битрейт : 3790 Кбит/сек
Ширина : 1280 пикселей
Высота : 718 пикселей
Соотношение сторон : 16:9
Режим частоты кадров : Постоянный
Частота кадров : 23,976 кадра/сек
Цветовое пространство : YUV
Субдискретизация насыщенности : 4:2:0
Битовая глубина : 8 бит
Тип развёртки : Прогрессивная
Бит/(Пиксели*Кадры) : 0.172
Размер потока : 537 Мбайт (81%)
Язык : English
Default : Нет
Forced : Нет
Основные цвета : BT.709
Характеристики трансфера : BT.709
Коэффициенты матрицы : BT.709
Аудио #1
Идентификатор : 2
Формат : AC-3
Формат/Информация : Audio Coding 3
Расширение режима : CM (complete main)
Параметр Endianness формата : Big
Идентификатор кодека : A_AC3
Продолжительность : 19 м.
Вид битрейта : Постоянный
Битрейт : 384 Кбит/сек
Каналы : 6 каналов
Расположение каналов : Front: L C R, Side: L R, LFE
Частота : 48,0 КГц
Битовая глубина : 16 бит
Метод сжатия : С потерями
Размер потока : 54,5 Мбайт (8%)
Заголовок : NewStudio.TV
Язык : Russian
Default : Да
Forced : Нет
Аудио #2
Идентификатор : 3
Формат : AC-3
Формат/Информация : Audio Coding 3
Расширение режима : CM (complete main)
Параметр Endianness формата : Big
Идентификатор кодека : A_AC3
Продолжительность : 19 м.
Вид битрейта : Постоянный
Битрейт : 384 Кбит/сек
Каналы : 6 каналов
Расположение каналов : Front: L C R, Side: L R, LFE
Частота : 48,0 КГц
Битовая глубина : 16 бит
Метод сжатия : С потерями
Задержка видео : 9 мс.
Размер потока : 54,5 Мбайт (8%)
Язык : English
Default : Нет
Forced : Нет






   Похожие торренты   Торрент   Размер 
В этой теме нет новых непрочитанных сообщений. Спецагент Арчер / Archer [S05] (2014) WEB-DLRip | NewStudio

100 | 40

3.81 ГБ

В этой теме нет новых непрочитанных сообщений. Спецагент Арчер / Archer [05х01-12 из 13] (2014) WEB-DLRip | NewStudio

62 | 23

3.52 ГБ

В этой теме нет новых непрочитанных сообщений. Спецагент Арчер / Archer [05х01-03 из 13] (2014) WEB-DLRip | NewStudio

33 | 12

900.06 МБ

В этой теме нет новых непрочитанных сообщений. Спецагент Арчер / Archer [05х01-04 из 13] (2014) WEB-DLRip | NewStudio

29 | 13

1.17 ГБ

В этой теме нет новых непрочитанных сообщений. Спецагент Арчер / Archer [05х01-09 из 13] (2014) WEB-DLRip | NewStudio

13 | 45

2.64 ГБ

В этой теме нет новых непрочитанных сообщений. Спецагент Арчер / Archer [05х01-11 из 13] (2014) WEB-DLRip | NewStudio

47 | 45

3.22 ГБ

В этой теме нет новых непрочитанных сообщений. Спецагент Арчер / Archer [05х01-06 из 13] (2014) WEB-DLRip | NewStudio

46 | 36

1.76 ГБ




Вы не можете начинать темы
Вы не можете отвечать на сообщения
Вы не можете редактировать свои сообщения
Вы не можете удалять свои сообщения
Вы не можете добавлять вложения

Перейти:  
Для Мосгорсуда, Роскомнадзора и рекламодателей: mosgorsud-torrent[собачка]yandex.ru
 Вход
ppkBB3cker v.2 © 2008-2014 @ PPK
[ Time : 0.024s | 14 Queries | GZIP : Off ]

Торрент трекер RUTOR.IN, Не можете зайти на rutor.org? Какой новый адрес рутор? Какое зеркало рутор? Не работает rutor.org и зеркала? Тогда наш торрент специально для вас. Rutor.in неофициальное зеркало rutor. В случае если у Вас заблокирован rutor или вдруг Вы не можете на него зайти, то Вы без труда сможете скачать бесплатно и без рекламы последние новинки кино, игр, сериалов и прочего у нас, на Rutor.in. Не нужно использовать прокси, чтобы зайти на рутор, достаточно воспользоваться нашим ресурсом. Все новые фильмы, игры, сериалы, книги и музыка за 2013 и 2014 годы через торрент бесплатно. Скачивайте фильмы в хорошем качестве, игры для пк, xbox, playstation без регистрации. У нас вы найдете новые Зарубежные сериалы и Русские сериалы 2013, 2014, 2015 годов. Оставайтесь с нами, качайте любимые фильмы, игры, сериалы, книги и музыку.