img image001 image001 image001 image001 image001 image001 image001 image001 image001 image001 image001 image001 image001 image001 image001

Planets Sun Sun Sun
Статистика раздачи
Автор: Nickolas3434 | Размер: 1.51 ГБ | Добавлен: 30 мар 2014
Раздают: 97    Качают: 43
Скачать торрент
Скачать торрент
Описание торрента

СообщениеДобавлено: 30 мар 2014 

Информация о фильме
Оригинальное название: Белка и Стрелка: Лунные приключения
Год выхода: 2013
Жанр: мультфильм, комедия, приключения, семейный
Режиссер: Александр Храмцов, Инна Евланникова, Вадим Сотсков
Роли озвучили: Нонна Гришаева, Марьяна Спивак, Евгений Миронов, Тимур Родригез, Сергей Гармаш, Лев Аксельрод, Илья Храмцов, Стася Кудякова, Алексей Колган, Роман Квашнин

О фильме: На Земле начали происходить странные и загадочные явления, несущие угрозу для планеты. Их след ведет в космос, на темную сторону Луны. Раскрыть тайну века поручили отряду Казбека. Белка, Стрелка и вся команда веселых и отважных героев отправляются на Луну, чтобы выполнить опасную миссию. Страсть к приключениям, искрометный юмор и великий дух космического братства поддержат в минуту великой опасности и помогут раскрыть всю правду о Луне и ее обитателях.


Официальный сайт

Выпущено: Россия
Продолжительность: 01:12:03
Озвучивание: Оригинальное

Файл
Кодек: H264
Качество: BDRip (AVC)
Видео: MPEG-4 AVC, 2555 Кбит/с, 1024x576
Звук: AC3, 6 ch, 448 Кбит/с
General
Unique ID : 238714509100757225880086825344945093118 (0xB396BDFBD15BA964B5F323A5FA53F9FE)
Complete name : C:Belka.i.Strelka.na.Lune.2013.BDRip.AVC.ExKinoRay.mkv
Format : Matroska
Format version : Version 2
File size : 1.51 GiB
Duration : 1h 12mn
Overall bit rate : 3 005 Kbps
Movie name : Belka i Strelka 2013 from ExKinoRay
Encoded date : UTC 2014-03-29 20:05:19
Writing application : mkvmerge v4.9.1 ('Ich will') built on Jul 11 2011 23:53:15
Writing library : libebml v1.2.1 + libmatroska v1.1.1

Video
ID : 1
Format : AVC
Format/Info : Advanced Video Codec
Format profile : High@L4.1
Format settings, CABAC : Yes
Format settings, ReFrames : 8 frames
Codec ID : V_MPEG4/ISO/AVC
Duration : 1h 12mn
Bit rate : 2 555 Kbps
Width : 1 024 pixels
Height : 576 pixels
Display aspect ratio : 16:9
Frame rate mode : Constant
Frame rate : 25.000 fps
Color space : YUV
Chroma subsampling : 4:2:0
Bit depth : 8 bits
Scan type : Progressive
Bits/(Pixel*Frame) : 0.173
Stream size : 1.26 GiB (83%)
Title : Enigma-Vladisalv71
Writing library : x264 core 116 r2044 392e762
Encoding settings : cabac=1 / ref=8 / deblock=1:-2:-1 / analyse=0x3:0x113 / me=umh / subme=9 / psy=1 / psy_rd=1.00:0.20 / mixed_ref=1 / me_range=32 / chroma_me=1 / trellis=2 / 8x8dct=1 / cqm=0 / deadzone=21,11 / fast_pskip=0 / chroma_qp_offset=-3 / threads=12 / sliced_threads=0 / nr=0 / decimate=0 / interlaced=0 / bluray_compat=0 / constrained_intra=0 / bframes=8 / b_pyramid=2 / b_adapt=2 / b_bias=0 / direct=3 / weightb=1 / open_gop=0 / weightp=2 / keyint=250 / keyint_min=25 / scenecut=40 / intra_refresh=0 / rc=2pass / mbtree=0 / bitrate=2555 / ratetol=1.0 / qcomp=0.60 / qpmin=0 / qpmax=69 / qpstep=4 / cplxblur=20.0 / qblur=0.5 / ip_ratio=1.40 / pb_ratio=1.30 / aq=1:1.00
Default : Yes
Forced : No

Audio
ID : 2
Format : AC-3
Format/Info : Audio Coding 3
Mode extension : CM (complete main)
Format settings, Endianness : Big
Codec ID : A_AC3
Duration : 1h 12mn
Bit rate mode : Constant
Bit rate : 448 Kbps
Channel(s) : 6 channels
Channel positions : Front: L C R, Side: L R, LFE
Sampling rate : 48.0 KHz
Bit depth : 16 bits
Compression mode : Lossy
Stream size : 231 MiB (15%)
Language : Russian
Default : Yes
Forced : No

Menu
00:00:00.000 : en:00:00:00.000
00:08:29.080 : en:00:08:29.080
00:19:27.760 : en:00:19:27.760
00:29:54.480 : en:00:29:54.480
00:38:40.120 : en:00:38:40.120
00:49:07.480 : en:00:49:07.480
00:56:04.960 : en:00:56:04.960
01:04:31.760 : en:01:04:31.760



Релиз от:

Авторы релиза:



   Похожие торренты   Торрент   Размер 
В этой теме нет новых непрочитанных сообщений. Белка и Стрелка: Лунные приключения (2013) BDRip 1080p от ExKinoRay

240 | 64

4.59 ГБ

В этой теме нет новых непрочитанных сообщений. Белка и Стрелка: Лунные приключения (2013) WEB-DLRip-AVC от ExKinoRay

179 | 106

1.3 ГБ

В этой теме нет новых непрочитанных сообщений. Белка и Стрелка: Лунные приключения (2013) BDRemux 1080i от ExKinoRay

35 | 26

16.43 ГБ

В этой теме нет новых непрочитанных сообщений. Белка и Стрелка: Лунные приключения (2013) BDRip 720p

919 | 93

2.19 ГБ

В этой теме нет новых непрочитанных сообщений. Белка и Стрелка: Лунные приключения (2013) BDRip-AVC от R.G. HD-Films | 60 fps

102 | 25

3 ГБ

В этой теме нет новых непрочитанных сообщений. Белка и Стрелка: Лунные приключения (2013) BDRip от HQCLUB | Лицензия

618 | 50

1.09 ГБ

В этой теме нет новых непрочитанных сообщений. Белка и Стрелка: Лунные приключения (2013) BDRip от New-Team | лицензия

669 | 94

1.44 ГБ




Вы не можете начинать темы
Вы не можете отвечать на сообщения
Вы не можете редактировать свои сообщения
Вы не можете удалять свои сообщения
Вы не можете добавлять вложения

Перейти:  
Для Мосгорсуда, Роскомнадзора и рекламодателей: mosgorsud-torrent[собачка]yandex.ru
 Вход
ppkBB3cker v.2 © 2008-2014 @ PPK
[ Time : 1.432s | 15 Queries | GZIP : Off ]

Торрент трекер RUTOR.IN, Не можете зайти на rutor.org? Какой новый адрес рутор? Какое зеркало рутор? Не работает rutor.org и зеркала? Тогда наш торрент специально для вас. Rutor.in неофициальное зеркало rutor. В случае если у Вас заблокирован rutor или вдруг Вы не можете на него зайти, то Вы без труда сможете скачать бесплатно и без рекламы последние новинки кино, игр, сериалов и прочего у нас, на Rutor.in. Не нужно использовать прокси, чтобы зайти на рутор, достаточно воспользоваться нашим ресурсом. Все новые фильмы, игры, сериалы, книги и музыка за 2013 и 2014 годы через торрент бесплатно. Скачивайте фильмы в хорошем качестве, игры для пк, xbox, playstation без регистрации. У нас вы найдете новые Зарубежные сериалы и Русские сериалы 2013, 2014, 2015 годов. Оставайтесь с нами, качайте любимые фильмы, игры, сериалы, книги и музыку.