img image001 image001 image001 image001 image001 image001 image001 image001 image001 image001 image001 image001 image001 image001 image001

Planets Sun Sun Sun
Статистика раздачи
Автор: Nickolas3434 | Размер: 544.12 МБ | Добавлен: 02 апр 2014
Раздают: 56    Качают: 6
Скачать торрент
Скачать торрент
Описание торрента

СообщениеДобавлено: 02 апр 2014 

Информация о фильме
Название: Приключения Кэти и Макса: Свет перед Рождеством
Оригинальное название: The Light Before Christmas
Год выхода: 2007
Жанр: Мультфильм, короткометражка
Режиссер: Нэйтан Смит, Кристофер Робин Миллер
Озвучивали: Руби Чейз О’Нил, Брок Холман, Кристофер Робин Миллер, Кен Сэнсом

О фильме: Кто хочет оказаться праздничной рождественской ночью в заснеженном лесу? К счастью, на помощь заплутавшим в чаще Кэти и Максу приходит добрый волшебник Дядюшка Кэндл. Он вышел к детишкам на встречу и отвел их в свой дом. Здесь есть и живые ёлочные игрушки, и удивительная книга сказок. Стоило дядюшке начать читать, как Кэти с Максом перенеслись на её страницы. И теперь они узнают, что же это такое за рождественские огни и почему в этот день обязательно нужно дарить всем подарки.



Страна: США / Christmas Partners
Продолжительность: 00:28:15
Перевод: Дублированный (по заказу Первой Видеокомпании)
Дата релиза: 31.03.2014

Файл
Кодек: MPEG-4 AVC
Качество: DVDRip
Видео: 1008x576, 2500 Кбит/с
Звук: AC3, 2 ch, 192 Кбит/с

Семпл








Unique ID : 236709407192164565601846844391721459462 (0xB21492D3B606BD74806384BC017ADF06)
Complete name : D:Prikljuchenija.Kjeti.i.Maksa.Svet.pered.Rozhdestvom.2007.x264.DVDRip.(AVC).KinoRay.(Sheikn).mkv
Format : Matroska
Format version : Version 2
File size : 544 MiB
Duration : 28mn 14s
Overall bit rate : 2 693 Kbps
Encoded date : UTC 2014-03-31 14:58:23
Writing application : mkvmerge v5.0.1 ('Es ist Sommer') built on Nov 6 2011 16:23:40
Writing library : libebml v1.2.2 + libmatroska v1.3.0
Video #1
ID : 1
Format : AVC
Format/Info : Advanced Video Codec
Format profile : High@L4.1
Format settings, CABAC : Yes
Format settings, ReFrames : 6 frames
Codec ID : V_MPEG4/ISO/AVC
Duration : 28mn 14s
Bit rate : 2 500 Kbps
Width : 1 008 pixels
Height : 576 pixels
Display aspect ratio : 16:9
Frame rate mode : Constant
Frame rate : 25.000 fps
Color space : YUV
Chroma subsampling : 4:2:0
Bit depth : 8 bits
Scan type : Progressive
Bits/(Pixel*Frame) : 0.172
Stream size : 495 MiB (91%)
Writing library : x264 core 119 r2106 07efeb4
Encoding settings : cabac=1 / ref=6 / deblock=1:-3:-3 / analyse=0x3:0x113 / me=umh / subme=10 / psy=1 / psy_rd=1.00:0.00 / mixed_ref=1 / me_range=50 / chroma_me=1 / trellis=2 / 8x8dct=1 / cqm=0 / deadzone=21,11 / fast_pskip=1 / chroma_qp_offset=-2 / threads=6 / sliced_threads=0 / nr=0 / decimate=1 / interlaced=0 / bluray_compat=0 / constrained_intra=0 / bframes=6 / b_pyramid=2 / b_adapt=1 / b_bias=0 / direct=3 / weightb=1 / open_gop=0 / weightp=2 / keyint=240 / keyint_min=20 / scenecut=40 / intra_refresh=0 / rc_lookahead=40 / rc=2pass / mbtree=1 / bitrate=2500 / ratetol=1.0 / qcomp=0.60 / qpmin=0 / qpmax=69 / qpstep=4 / cplxblur=20.0 / qblur=0.5 / ip_ratio=1.40 / aq=1:1.00
Default : Yes
Forced : No
Audio #2
ID : 2
Format : AC-3
Format/Info : Audio Coding 3
Mode extension : CM (complete main)
Format settings, Endianness : Big
Codec ID : A_AC3
Duration : 28mn 14s
Bit rate mode : Constant
Bit rate : 192 Kbps
Channel(s) : 2 channels
Channel positions : Front: L R
Sampling rate : 48.0 KHz
Bit depth : 16 bits
Compression mode : Lossy
Stream size : 38.8 MiB (7%)
Default : Yes
Forced : No


Релиз от:



   Похожие торренты   Торрент   Размер 
В этой теме нет новых непрочитанных сообщений. Приключения Кэти и Макса: Свет перед Рождеством / The Light Before Christmas (2007) DVDRip от RG Superdetki

3 | 2

267.83 МБ

В этой теме нет новых непрочитанных сообщений. Приключения Кэти и Макса: Страшилка на Хэллоуин / Spooky Bats and Scaredy Cats: A Halloween Tale (2008) DVDRip от KinoRay & Sheikn

68 | 16

392.81 МБ

В этой теме нет новых непрочитанных сообщений. Приключения Кэти и Макса: Страшилка на Хэллоуин / Spooky Bats and Scaredy Cats: A Halloween Tale (2008) DVDRip-AVC от KinoRay & Sheikn

13 | 8

549.95 МБ

В этой теме нет новых непрочитанных сообщений. Приключения Бетси Бабблгам во Вкусляндии / Betsy Bubblegum's Journey Through Yummi-Land (2007) DVDRip от KinoRay & Sheikn | P2

63 | 32

684.76 МБ

В этой теме нет новых непрочитанных сообщений. Приключения Карфагена. Новые приключения Карфагена / Les Naufrages de Carthage. Viva Carthago (2003) DVDRip от KinoRay & Sheikn

18 | 8

2.62 ГБ

В этой теме нет новых непрочитанных сообщений. Рождественская песня / A Christmas Carol: Scrooge's Ghostly Tale (2006) DVDRip от KinoRay & Sheikn

15 | 15

643.72 МБ

В этой теме нет новых непрочитанных сообщений. Новые приключения Вильгельма Телля / New Adventures of William Tell (1993) DVDRip от KinoRay & Sheikn | P2

36 | 17

841 МБ




Вы не можете начинать темы
Вы не можете отвечать на сообщения
Вы не можете редактировать свои сообщения
Вы не можете удалять свои сообщения
Вы не можете добавлять вложения

Перейти:  
Для Мосгорсуда, Роскомнадзора и рекламодателей: mosgorsud-torrent[собачка]yandex.ru
 Вход
ppkBB3cker v.2 © 2008-2014 @ PPK
[ Time : 0.056s | 16 Queries | GZIP : Off ]

Торрент трекер RUTOR.IN, Не можете зайти на rutor.org? Какой новый адрес рутор? Какое зеркало рутор? Не работает rutor.org и зеркала? Тогда наш торрент специально для вас. Rutor.in неофициальное зеркало rutor. В случае если у Вас заблокирован rutor или вдруг Вы не можете на него зайти, то Вы без труда сможете скачать бесплатно и без рекламы последние новинки кино, игр, сериалов и прочего у нас, на Rutor.in. Не нужно использовать прокси, чтобы зайти на рутор, достаточно воспользоваться нашим ресурсом. Все новые фильмы, игры, сериалы, книги и музыка за 2013 и 2014 годы через торрент бесплатно. Скачивайте фильмы в хорошем качестве, игры для пк, xbox, playstation без регистрации. У нас вы найдете новые Зарубежные сериалы и Русские сериалы 2013, 2014, 2015 годов. Оставайтесь с нами, качайте любимые фильмы, игры, сериалы, книги и музыку.
cron