img image001 image001 image001 image001 image001 image001 image001 image001 image001 image001 image001 image001 image001 image001 image001

Planets Sun Sun Sun
Статистика раздачи
Автор: Nickolas3434 | Размер: 1.23 ГБ | Добавлен: 01 апр 2014
Раздают: 73    Качают: 15
Скачать торрент
Скачать торрент
Описание торрента

СообщениеДобавлено: 01 апр 2014 

Информация о фильме
Название: Принцы и принцессы
Оригинальное название: Princes et princesses (Princes and princesses)
Год выхода: 1999
Жанр: Мультфильм, фантастика, мелодрама, комедия, семейный, полнометражный
Режиссер: Мишель Осело
Озвучивали: Арлетт Мирапе, Филипп Чейтион, Ив Барсак, Франсуа Вуазен

О фильме: Шесть чарующих сказок со знакомыми с детства сюжетами, каждая из которых не похожа на другие. В каждой из них — разные страны, разные эпохи, но все герои — принцы и принцессы, а добро непременно побеждает зло.



Страна: Франция / Canal+ [fr], Centre National du Cinéma et de L'image Animée (CNC), Gébéka Films, La Fabrique, Les Armateurs, Salud Productions, Studio O
Продолжительность: 01:04:23
Перевод: Профессиональный, двухголосый ("Студия Санотек")
Дата релиза: 01.04.2014

Файл
Кодек: MPEG-4 AVC
Качество: DVDRip
Видео: 944x576, 2500 Кбит/с
Звук: AC3, 2 ch, 224 Кбит/с

Семпл








Unique ID : 197381276927445985891771041358411533087 (0x947E404CA68F8F10BE4DC700E6ED0B1F)
Complete name : D:Princy.i.princessy.1999.x264.DVDRip.(AVC).KinoRay.(Sheikn).mkv
Format : Matroska
Format version : Version 2
File size : 1.23 GiB
Duration : 1h 4mn
Overall bit rate : 2 725 Kbps
Encoded date : UTC 2014-03-31 20:01:28
Writing application : mkvmerge v5.0.1 ('Es ist Sommer') built on Nov 6 2011 16:23:40
Writing library : libebml v1.2.2 + libmatroska v1.3.0
Video #1
ID : 1
Format : AVC
Format/Info : Advanced Video Codec
Format profile : High@L4.1
Format settings, CABAC : Yes
Format settings, ReFrames : 6 frames
Codec ID : V_MPEG4/ISO/AVC
Duration : 1h 4mn
Bit rate : 2 500 Kbps
Width : 944 pixels
Height : 576 pixels
Display aspect ratio : 1.576
Frame rate mode : Constant
Frame rate : 25.000 fps
Color space : YUV
Chroma subsampling : 4:2:0
Bit depth : 8 bits
Scan type : Progressive
Bits/(Pixel*Frame) : 0.184
Stream size : 1.10 GiB (90%)
Writing library : x264 core 119 r2106 07efeb4
Encoding settings : cabac=1 / ref=6 / deblock=1:-3:-3 / analyse=0x3:0x113 / me=umh / subme=10 / psy=1 / psy_rd=1.00:0.00 / mixed_ref=1 / me_range=30 / chroma_me=1 / trellis=2 / 8x8dct=1 / cqm=0 / deadzone=21,11 / fast_pskip=1 / chroma_qp_offset=-2 / threads=6 / sliced_threads=0 / nr=0 / decimate=1 / interlaced=0 / bluray_compat=0 / constrained_intra=0 / bframes=6 / b_pyramid=2 / b_adapt=1 / b_bias=0 / direct=3 / weightb=1 / open_gop=0 / weightp=2 / keyint=240 / keyint_min=20 / scenecut=40 / intra_refresh=0 / rc_lookahead=40 / rc=2pass / mbtree=1 / bitrate=2500 / ratetol=1.0 / qcomp=0.60 / qpmin=0 / qpmax=69 / qpstep=4 / cplxblur=20.0 / qblur=0.5 / ip_ratio=1.40 / aq=1:1.00
Default : Yes
Forced : No
Audio #2
ID : 2
Format : AC-3
Format/Info : Audio Coding 3
Mode extension : CM (complete main)
Format settings, Endianness : Big
Codec ID : A_AC3
Duration : 1h 4mn
Bit rate mode : Constant
Bit rate : 224 Kbps
Channel(s) : 2 channels
Channel positions : Front: L R
Sampling rate : 48.0 KHz
Bit depth : 16 bits
Compression mode : Lossy
Stream size : 103 MiB (8%)
Default : Yes
Forced : No


Релиз от:



   Похожие торренты   Торрент   Размер 
В этой теме нет новых непрочитанных сообщений. Принцы и принцессы / Princes et princesses / Princes and princesses (1999) DVDRip от KinoRay & Sheikn | P2

40 | 18

775.93 МБ

В этой теме нет новых непрочитанных сообщений. Неразгаданная история: гибель принцессы Дианы / Unsolved History: Diana - Death of Princes (2003) DVDRip

6 | 25

700.47 МБ

В этой теме нет новых непрочитанных сообщений. Барби и 12 Танцующих принцесс / Barbie in the 12 Dancing Princesses (2006) DVDRip от Files-x

680 | 16

1.37 ГБ

В этой теме нет новых непрочитанных сообщений. Тайна убийства принцев в Тауэре / Who killed the princes in the Tower? (2014) IPTVRip от Pshichko66

44 | 2

699.34 МБ

В этой теме нет новых непрочитанных сообщений. Трагическая судьба российских царевен / Russia’s Lost Princesses [01-02 из 02] (2014) HDTVRip от R.G.Resident | D

3 | 0

1.47 ГБ

В этой теме нет новых непрочитанных сообщений. Трагическая судьба российских царевен / Russia’s Lost Princesses [01-02] (2014) IPTVRip от Pshichko66

64 | 18

1.75 ГБ

В этой теме нет новых непрочитанных сообщений. Посмотри на меня / Guardami (1999) DVDRip от KinoRay & Sheikn | L1

344 | 31

700.86 МБ




Вы не можете начинать темы
Вы не можете отвечать на сообщения
Вы не можете редактировать свои сообщения
Вы не можете удалять свои сообщения
Вы не можете добавлять вложения

Перейти:  
Для Мосгорсуда, Роскомнадзора и рекламодателей: mosgorsud-torrent[собачка]yandex.ru
 Вход
ppkBB3cker v.2 © 2008-2014 @ PPK
[ Time : 0.042s | 16 Queries | GZIP : Off ]

cron