img image001 image001 image001 image001 image001 image001 image001 image001 image001 image001 image001 image001 image001 image001 image001

Planets Sun Sun Sun
Статистика раздачи
Автор: Nickolas3434 | Размер: 17.08 ГБ | Добавлен: 06 апр 2014
Раздают: 222    Качают: 89
Скачать торрент
Скачать торрент
Описание торрента

СообщениеДобавлено: 06 апр 2014 




Мадагаскар: Трилогия / Madagascar: Тrilogy (2005-2012) BDRip 720p

Название: Мадагаскар: Трилогия
Оригинальное название: Madagascar: Тrilogy
Год выхода: 2005 | 2008 | 2012
Жанр: Комедия, приключения, семейный
Режиссер: Эрик Дарнелл, Том МакГрат, Конрад Вернон
Выпущено: США, Германия, Великобритания
Продолжительность: 01:25:54 | 01:29:24 | 01:33:24

Автор Рипа: Сообщество:





Информация о фильме
    Русское название: Мадагаскар
    Оригинальное название: Madagascar
    Год выхода: 2005
    Продолжительность: 01:25:54
    Перевод: Дублированный
    Роли озвучивали: Бен Стиллер, Крис Рок, Дэвид Швиммер, Джада Пинкетт Смит, Саша Барон Коэн, Седрик зе Энтертейнер, Энди Рихтер, Том МакГрат, Кристофер Найтс, Крис Миллер, Конрад Вернон, Эрик Дарнелл, Дэвид Кауджилл, Стефен Апостолина, Элиза Габриелли, Девика Парих, Дэвид П. Смит, Коуди Камерон, Боб Сагет


Сюжет фильма
    Четверо изнеженных животных из Центрального зоопарка в Нью-Йорке — лев Алекс, зебра Марти, жираф Мелман и гиппопотамиха Глория — решаются на побег. Оказавшись после кораблекрушения на экзотическом острове Мадагаскар, населенном лемурами и поедающими их фоссами, путешественники с ужасом понимают, что с городскими привычками им придется распрощаться.
    Здесь нет людей, любимых клеток, вкусной кормежки. Начинается шоу «Последний герой» только с животными — нашим друзьям нужно выжить в непривычной среде обитания, где на каждом шагу подстерегает опасность…


Файл
    Качество: BDRip 720p (исходник Blu-ray Disc)
    Видео: 1280x720, 8406 Кбит/сек, 23,976 кадр/сек, AVC, x264, High@L4.1, 16:9, 0.380 Бит/[Пиксели*Кадры]
    Аудио 1: AC-3, 448 Кбит/сек, 6 канала(ов), 48,0 КГц - Дублированный / Русский
    Аудио 2: AC-3, 640 Кбит/сек, 6 канала(ов), 48,0 КГц - Оригинал / Английский
    Субтитры: Русские | Полные, Английские | Полные
    Чаптеры: Есть







Format : Matroska
Format version : Version 2
File size : 5.69 GiB
Duration : 1h 25mn
Overall bit rate : 9 488 Kbps
Movie name : Мадагаскар.(2005).BDRip.720p.[envy]
Encoded date : UTC 2014-04-03 08:03:44
Writing application : mkvmerge v5.8.0 ('No Sleep / Pillow') built on Sep 2 2012 15:37:04
Writing library : libebml v1.2.3 + libmatroska v1.3.0

Video
ID : 1
Format : AVC
Format/Info : Advanced Video Codec
Format profile : High@L4.1
Format settings, CABAC : Yes
Format settings, ReFrames : 9 frames
Codec ID : V_MPEG4/ISO/AVC
Duration : 1h 25mn
Bit rate : 8 406 Kbps
Width : 1 280 pixels
Height : 720 pixels
Display aspect ratio : 16:9
Frame rate mode : Constant
Frame rate : 23.976 fps
Color space : YUV
Chroma subsampling : 4:2:0
Bit depth : 8 bits
Scan type : Progressive
Bits/(Pixel*Frame) : 0.380
Stream size : 4.93 GiB (87%)
Writing library : x264 core 140 r2377 1ca7bb9
Encoding settings : cabac=1 / ref=9 / deblock=1:0:0 / analyse=0x3:0x133 / me=umh / subme=11 / psy=1 / psy_rd=1.00:0.00 / mixed_ref=1 / me_range=48 / chroma_me=1 / trellis=2 / 8x8dct=1 / cqm=0 / deadzone=21,11 / fast_pskip=0 / chroma_qp_offset=-2 / threads=12 / lookahead_threads=1 / sliced_threads=0 / nr=0 / decimate=1 / interlaced=0 / bluray_compat=0 / constrained_intra=0 / bframes=6 / b_pyramid=2 / b_adapt=2 / b_bias=0 / direct=3 / weightb=1 / open_gop=0 / weightp=2 / keyint=240 / keyint_min=23 / scenecut=40 / intra_refresh=0 / rc=2pass / mbtree=0 / bitrate=8406 / ratetol=2.0 / qcomp=0.60 / qpmin=0 / qpmax=69 / qpstep=4 / cplxblur=20.0 / qblur=0.5 / ip_ratio=1.40 / pb_ratio=1.30 / aq=2:0.90
Language : English
Default : Yes
Forced : No

Audio #1
ID : 2
Format : AC-3
Format/Info : Audio Coding 3
Mode extension : CM (complete main)
Format settings, Endianness : Big
Codec ID : A_AC3
Duration : 1h 25mn
Bit rate mode : Constant
Bit rate : 448 Kbps
Channel count : 6 channels
Channel positions : Front: L C R, Side: L R, LFE
Sampling rate : 48.0 KHz
Bit depth : 16 bits
Compression mode : Lossy
Stream size : 275 MiB (5%)
Title : Dub
Language : Russian
Default : Yes
Forced : No

Audio #2
ID : 3
Format : AC-3
Format/Info : Audio Coding 3
Mode extension : CM (complete main)
Format settings, Endianness : Big
Codec ID : A_AC3
Duration : 1h 25mn
Bit rate mode : Constant
Bit rate : 640 Kbps
Channel count : 6 channels
Channel positions : Front: L C R, Side: L R, LFE
Sampling rate : 48.0 KHz
Bit depth : 16 bits
Compression mode : Lossy
Stream size : 393 MiB (7%)
Title : Eng
Language : English
Default : No
Forced : No

Text #1
ID : 4
Format : UTF-8
Codec ID : S_TEXT/UTF8
Codec ID/Info : UTF-8 Plain Text
Language : Russian
Default : No
Forced : No

Text #2
ID : 5
Format : UTF-8
Codec ID : S_TEXT/UTF8
Codec ID/Info : UTF-8 Plain Text
Language : English
Default : No
Forced : No

Menu
00:00:00.000 : :Chapter 01
00:05:34.167 : :Chapter 02
00:08:35.473 : :Chapter 03
00:12:40.092 : :Chapter 04
00:17:56.867 : :Chapter 05
00:22:32.684 : :Chapter 06
00:26:56.615 : :Chapter 07
00:30:57.856 : :Chapter 08
00:35:30.878 : :Chapter 09
00:40:06.570 : :Chapter 10
00:44:34.797 : :Chapter 11
00:48:52.346 : :Chapter 12
00:52:18.844 : :Chapter 13
00:57:15.557 : :Chapter 14
01:02:16.733 : :Chapter 15
01:06:56.554 : :Chapter 16
01:12:37.102 : :Chapter 17
01:16:20.117 : :Chapter 18
01:18:18.652 : :Chapter 19
01:19:10.036 : :Chapter 20
01:25:57.861 : :Chapter 21



Информация о фильме
    Русское название: Мадагаскар 2
    Оригинальное название: Madagascar: Escape 2 Africa
    Год выхода: 2008
    Продолжительность: 01:29:24
    Перевод: Дублированный
    Роли озвучивали: Бен Стиллер, Крис Рок, Дэвид Швиммер, Джада Пинкетт Смит, Саша Барон Коэн, Седрик «Развлекатель», Энди Рихтер, Берни Мак, Алек Болдуин, Шерри Шеперд


Сюжет фильма
    Полная опасностей жизнь на Мадагаскаре не оправдала ожиданий привыкших к комфорту Нью-Йоркского зоопарка животных — льва Алекса, зебры Марти, жирафа Мелмана и бегемотихи Глории — и друзья решают сбежать с острова. По случайности, всю компанию заносит в Африку, где Алекс встречает свою семью, с которой он был разлучен в детстве. Неожиданно для себя Алекс понимает, что после жизни в зоопарке у него гораздо меньше общего с родственниками, чем ему хотелось бы…


Файл
    Качество: BDRip 720p (исходник Blu-ray Disc)
    Видео: 1280x720, 8037 Кбит/сек, 23,976 кадр/сек, AVC, x264, High@L4.1, 16:9, 0.364 Бит/[Пиксели*Кадры], 2pass
    Аудио 1: AC-3, 448 Кбит/сек, 6 канала(ов), 48,0 КГц - Дублированный / Русский
    Аудио 2: AC-3, 640 Кбит/сек, 6 канала(ов), 48,0 КГц - Оригинал / Английский
    Субтитры: Русские | Полные, Английские | Полные
    Чаптеры: Есть







Format : Matroska
Format version : Version 2
File size : 5.69 GiB
Duration : 1h 29mn
Overall bit rate : 9 119 Kbps
Movie name : Мадагаскар 2.(2008).BDRip.720p.[envy]
Encoded date : UTC 2014-04-03 19:13:12
Writing application : mkvmerge v5.8.0 ('No Sleep / Pillow') built on Sep 2 2012 15:37:04
Writing library : libebml v1.2.3 + libmatroska v1.3.0

Video
ID : 1
Format : AVC
Format/Info : Advanced Video Codec
Format profile : High@L4.1
Format settings, CABAC : Yes
Format settings, ReFrames : 9 frames
Codec ID : V_MPEG4/ISO/AVC
Duration : 1h 29mn
Bit rate : 8 037 Kbps
Width : 1 280 pixels
Height : 720 pixels
Display aspect ratio : 16:9
Frame rate mode : Constant
Frame rate : 23.976 fps
Color space : YUV
Chroma subsampling : 4:2:0
Bit depth : 8 bits
Scan type : Progressive
Bits/(Pixel*Frame) : 0.364
Stream size : 4.90 GiB (86%)
Title : Мадагаскар 2.(2008).BDRip.720p.[envy]
Writing library : x264 core 140 r2377 1ca7bb9
Encoding settings : cabac=1 / ref=9 / deblock=1:0:0 / analyse=0x3:0x133 / me=umh / subme=11 / psy=1 / psy_rd=1.00:0.00 / mixed_ref=1 / me_range=48 / chroma_me=1 / trellis=2 / 8x8dct=1 / cqm=0 / deadzone=21,11 / fast_pskip=0 / chroma_qp_offset=-2 / threads=12 / lookahead_threads=1 / sliced_threads=0 / nr=0 / decimate=1 / interlaced=0 / bluray_compat=0 / constrained_intra=0 / bframes=6 / b_pyramid=2 / b_adapt=2 / b_bias=0 / direct=3 / weightb=1 / open_gop=0 / weightp=2 / keyint=240 / keyint_min=23 / scenecut=40 / intra_refresh=0 / rc=2pass / mbtree=0 / bitrate=8037 / ratetol=2.0 / qcomp=0.60 / qpmin=0 / qpmax=69 / qpstep=4 / cplxblur=20.0 / qblur=0.5 / ip_ratio=1.40 / pb_ratio=1.30 / aq=2:0.90
Language : English
Default : Yes
Forced : No

Audio #1
ID : 2
Format : AC-3
Format/Info : Audio Coding 3
Mode extension : CM (complete main)
Format settings, Endianness : Big
Codec ID : A_AC3
Duration : 1h 29mn
Bit rate mode : Constant
Bit rate : 448 Kbps
Channel count : 6 channels
Channel positions : Front: L C R, Side: L R, LFE
Sampling rate : 48.0 KHz
Bit depth : 16 bits
Compression mode : Lossy
Stream size : 286 MiB (5%)
Title : Dub
Language : Russian
Default : Yes
Forced : No

Audio #2
ID : 3
Format : AC-3
Format/Info : Audio Coding 3
Mode extension : CM (complete main)
Format settings, Endianness : Big
Codec ID : A_AC3
Duration : 1h 29mn
Bit rate mode : Constant
Bit rate : 640 Kbps
Channel count : 6 channels
Channel positions : Front: L C R, Side: L R, LFE
Sampling rate : 48.0 KHz
Bit depth : 16 bits
Compression mode : Lossy
Stream size : 409 MiB (7%)
Title : Eng
Language : English
Default : No
Forced : No

Text #1
ID : 4
Format : UTF-8
Codec ID : S_TEXT/UTF8
Codec ID/Info : UTF-8 Plain Text
Language : Russian
Default : No
Forced : No

Text #2
ID : 5
Format : UTF-8
Codec ID : S_TEXT/UTF8
Codec ID/Info : UTF-8 Plain Text
Language : English
Default : No
Forced : No

Menu
00:00:00.000 : :Chapter 01
00:04:15.880 : :Chapter 02
00:06:46.614 : :Chapter 03
00:09:25.773 : :Chapter 04
00:15:51.951 : :Chapter 05
00:17:34.762 : :Chapter 06
00:20:26.934 : :Chapter 07
00:23:57.352 : :Chapter 08
00:28:03.556 : :Chapter 09
00:30:58.898 : :Chapter 10
00:33:52.905 : :Chapter 11
00:35:19.909 : :Chapter 12
00:38:15.418 : :Chapter 13
00:42:59.910 : :Chapter 14
00:45:35.941 : :Chapter 15
00:49:22.918 : :Chapter 16
00:52:17.259 : :Chapter 17
00:55:17.772 : :Chapter 18
00:57:59.809 : :Chapter 19
01:03:28.638 : :Chapter 20
01:06:33.948 : :Chapter 21
01:15:17.888 : :Chapter 22
01:19:48.074 : :Chapter 23
01:29:24.150 : :Chapter 24



Информация о фильме
    Русское название: Мадагаскар 3
    Оригинальное название: Madagascar 3: Europe's Most Wanted
    Год выхода: 2012
    Продолжительность: 01:33:24
    Перевод: Дублированный
    Роли озвучивали: Бен Стиллер, Крис Рок, Дэвид Швиммер, Джада Пинкетт Смит, Саша Барон Коэн, Седрик «Развлекатель», Энди Рихтер, Том МакГрат, Фрэнсис МакДорманд, Джессика Честейн


Сюжет фильма
    Лев Алекс, зебра Марти, гиппопотамиха Глория и жираф Мелман, а также король Джулиан, Морис, Морт и Пингвины все еще пытаются вернуться в Нью-Йорк. На этот раз их путь пройдет через Европу, где они откроют свой цирк.


Файл
    Качество: BDRip 720p (исходник Blu-ray Disc)
    Видео: 1280x720, 7454 Кбит/сек, 23,976 кадр/сек, AVC, x264, High@L4.1, 16:9, 0.337 Бит/[Пиксели*Кадры], 2pass
    Аудио 1: AC-3, 640 Кбит/сек, 6 канала(ов), 48,0 КГц - Дублированный / Русский
    Аудио 2: AC-3, 640 Кбит/сек, 6 канала(ов), 48,0 КГц - Оригинал / Английский
    Субтитры: Русские | Полные/Форсирующие , Английские | Полные
    Чаптеры: Есть







Format : Matroska
Format version : Version 2
File size : 5.69 GiB
Duration : 1h 33mn
Overall bit rate : 8 729 Kbps
Movie name : Мадагаскар 3.(2012).BDRip.720p.[envy]
Encoded date : UTC 2014-04-04 04:25:22
Writing application : mkvmerge v5.8.0 ('No Sleep / Pillow') built on Sep 2 2012 15:37:04
Writing library : libebml v1.2.3 + libmatroska v1.3.0

Video
ID : 1
Format : AVC
Format/Info : Advanced Video Codec
Format profile : High@L4.1
Format settings, CABAC : Yes
Format settings, ReFrames : 9 frames
Codec ID : V_MPEG4/ISO/AVC
Duration : 1h 33mn
Bit rate : 7 454 Kbps
Width : 1 280 pixels
Height : 720 pixels
Display aspect ratio : 16:9
Frame rate mode : Constant
Frame rate : 23.976 fps
Color space : YUV
Chroma subsampling : 4:2:0
Bit depth : 8 bits
Scan type : Progressive
Bits/(Pixel*Frame) : 0.337
Stream size : 4.75 GiB (83%)
Title : Мадагаскар 3.(2012).BDRip.720p.[envy]
Writing library : x264 core 140 r2377 1ca7bb9
Encoding settings : cabac=1 / ref=9 / deblock=1:0:0 / analyse=0x3:0x133 / me=umh / subme=11 / psy=1 / psy_rd=1.00:0.00 / mixed_ref=1 / me_range=48 / chroma_me=1 / trellis=2 / 8x8dct=1 / cqm=0 / deadzone=21,11 / fast_pskip=0 / chroma_qp_offset=-2 / threads=12 / lookahead_threads=1 / sliced_threads=0 / nr=0 / decimate=1 / interlaced=0 / bluray_compat=0 / constrained_intra=0 / bframes=6 / b_pyramid=2 / b_adapt=2 / b_bias=0 / direct=3 / weightb=1 / open_gop=0 / weightp=2 / keyint=240 / keyint_min=23 / scenecut=40 / intra_refresh=0 / rc=2pass / mbtree=0 / bitrate=7454 / ratetol=2.0 / qcomp=0.60 / qpmin=0 / qpmax=69 / qpstep=4 / cplxblur=20.0 / qblur=0.5 / ip_ratio=1.40 / pb_ratio=1.30 / aq=2:0.90
Language : English
Default : Yes
Forced : No

Audio #1
ID : 2
Format : AC-3
Format/Info : Audio Coding 3
Mode extension : CM (complete main)
Format settings, Endianness : Big
Codec ID : A_AC3
Duration : 1h 33mn
Bit rate mode : Constant
Bit rate : 640 Kbps
Channel count : 6 channels
Channel positions : Front: L C R, Side: L R, LFE
Sampling rate : 48.0 KHz
Bit depth : 16 bits
Compression mode : Lossy
Stream size : 428 MiB (7%)
Title : Dub
Language : Russian
Default : Yes
Forced : No

Audio #2
ID : 3
Format : AC-3
Format/Info : Audio Coding 3
Mode extension : CM (complete main)
Format settings, Endianness : Big
Codec ID : A_AC3
Duration : 1h 33mn
Bit rate mode : Constant
Bit rate : 640 Kbps
Channel count : 6 channels
Channel positions : Front: L C R, Side: L R, LFE
Sampling rate : 48.0 KHz
Bit depth : 16 bits
Compression mode : Lossy
Stream size : 428 MiB (7%)
Title : Eng
Language : English
Default : No
Forced : No

Text #1
ID : 4
Format : UTF-8
Codec ID : S_TEXT/UTF8
Codec ID/Info : UTF-8 Plain Text
Title : Rus forced
Language : Russian
Default : Yes
Forced : Yes

Text #2
ID : 5
Format : UTF-8
Codec ID : S_TEXT/UTF8
Codec ID/Info : UTF-8 Plain Text
Language : Russian
Default : No
Forced : No

Text #3
ID : 6
Format : UTF-8
Codec ID : S_TEXT/UTF8
Codec ID/Info : UTF-8 Plain Text
Language : English
Default : No
Forced : No

Menu
00:00:00.000 : :Chapter 01
00:05:16.315 : :Chapter 02
00:10:51.984 : :Chapter 03
00:19:46.310 : :Chapter 04
00:27:49.834 : :Chapter 05
00:32:50.551 : :Chapter 06
00:40:34.974 : :Chapter 07
00:46:51.975 : :Chapter 08
00:52:00.534 : :Chapter 09
00:58:55.156 : :Chapter 10
01:00:23.411 : :Chapter 11
01:04:19.313 : :Chapter 12
01:10:59.672 : :Chapter 13
01:15:30.317 : :Chapter 14
01:21:09.781 : :Chapter 15
01:22:48.630 : :Chapter 16
01:33:23.931 : :Chapter 17


При поддержке:



   Похожие торренты   Торрент   Размер 
В этой теме нет новых непрочитанных сообщений. Мадагаскар: Трилогия / Madagascar: Trilogy (2005-2012) BDRip-720p | Дополнительные материалы

16 | 9

5.31 ГБ

В этой теме нет новых непрочитанных сообщений. Мадагаскар: Трилогия / Madagascar: Trilogy (2005-2012) BDRip 720p от Leonardo and Scarabey | iPad

329 | 68

5.27 ГБ

В этой теме нет новых непрочитанных сообщений. Мадагаскар / Madagascar (2005) BDRip 720p

76 | 6

4.38 ГБ

В этой теме нет новых непрочитанных сообщений. Мадагаскар / Madagascar (2005) BDRip 720p от DHT-Movies

96 | 8

3.19 ГБ

В этой теме нет новых непрочитанных сообщений. Мадагаскар: Коллекция / Madagascar: Сollection (2005, 2008, 2009, 2012) BDRip-AVC, HDTVRip-AVC от potroks | D

75 | 7

6.98 ГБ

В этой теме нет новых непрочитанных сообщений. Мадагаскар 1, 2 / Madagascar / Madagascar: Escape 2 Africa (2005-2008) 2xDVD9, DVD5 от Youtracker | D | Лицензия

150 | 5

15.39 ГБ

В этой теме нет новых непрочитанных сообщений. Остров лемуров: Мадагаскар / Island of Lemurs: Madagascar (2014) BDRip 1080p от NNNB

71 | 17

3.02 ГБ




Вы не можете начинать темы
Вы не можете отвечать на сообщения
Вы не можете редактировать свои сообщения
Вы не можете удалять свои сообщения
Вы не можете добавлять вложения

Перейти:  
Для Мосгорсуда, Роскомнадзора и рекламодателей: mosgorsud-torrent[собачка]yandex.ru
 Вход
ppkBB3cker v.2 © 2008-2014 @ PPK
[ Time : 0.098s | 17 Queries | GZIP : Off ]
CGP output time : 0.089s | 5 Queries | GZIP : Off

Торрент трекер RUTOR.IN, Не можете зайти на rutor.org? Какой новый адрес рутор? Какое зеркало рутор? Не работает rutor.org и зеркала? Тогда наш торрент специально для вас. Rutor.in неофициальное зеркало rutor. В случае если у Вас заблокирован rutor или вдруг Вы не можете на него зайти, то Вы без труда сможете скачать бесплатно и без рекламы последние новинки кино, игр, сериалов и прочего у нас, на Rutor.in. Не нужно использовать прокси, чтобы зайти на рутор, достаточно воспользоваться нашим ресурсом. Все новые фильмы, игры, сериалы, книги и музыка за 2013 и 2014 годы через торрент бесплатно. Скачивайте фильмы в хорошем качестве, игры для пк, xbox, playstation без регистрации. У нас вы найдете новые Зарубежные сериалы и Русские сериалы 2013, 2014, 2015 годов. Оставайтесь с нами, качайте любимые фильмы, игры, сериалы, книги и музыку.