img image001 image001 image001 image001 image001 image001 image001 image001 image001 image001 image001 image001 image001 image001 image001

Planets Sun Sun Sun
Статистика раздачи
Автор: Nickolas3434 | Размер: 5.23 ГБ | Добавлен: 06 апр 2014
Раздают: 182    Качают: 120
Скачать торрент
Скачать торрент
Описание торрента

СообщениеДобавлено: 06 апр 2014 

Реальная белка
The Nut Job



Год выпуска: 2013
Страна: Канада, Южная Корея, США (Universal Pictures, Open Road Films, Endgame Entertainment, RedRover Co., Toonbox Entertainment, Gulfstream Pictures)
Жанр: Мультфильм, Комедия, Приключения, Семейный
Продолжительность: 01:25:54

Перевод: Любительский многоголосый закадровый - BaibaKo

Режиссер: Питер Лепениотис / Peter Lepeniotis

Роли озвучивали (на английском): Уилл Арнетт (Surly), (Grayson), Лиам Нисон (Raccoon), (Andie), Стивен Лэнг (King), Майя Рудольф (Precious), Джефф Данэм (Mole), Гэбриел Иглесиас (Jimmy), Сара Гадон (Lana)



Описание: Пытаясь выжить в городе, неразлучные друзья — белка Злюк и крысёнок Бадди натыкаются на магазин, до краёв набитый их любимым лакомством — орехами. Чувствуя, что «мечты сбываются», приятели планируют величайшее ограбление в истории грызунов. Но тут совсем некстати нарисовались бедные родственники из парка — прямо 13 друзей арахиса! Однако им всем невдомёк, что магазин орехов — лишь прикрытие для банды грабителей, которые намерены вырыть туннель под банк и подменить мешки с деньгами на мешки с теми самыми орехами.



Премьера: 11 января 2014 (17 апреля 2014)
Бюджет: $42 000 000
Кассовые сборы: $68 540 799






Качество: BDRip (by Ash61)
Контейнер: MKV
Формат 3D: Half OverUnder / Вертикальная анаморфная стереопара
Порядок ракурсов: левый ракурс первый
Видео кодек: x264
Аудио кодек: AC3



Видео: AVC / 23,976 fps / 1920х1080p / ~7.5 Mbps

Аудио:
#1 - Русский / AC3 / 48 KHz / 5.1 ch / 448 Kbps (MVO - BaibaKo])
#2 - Английский / AC3 / 48 KHz / 5.1 ch / 640 Kbps (Original - BD 3D)

Субтитры: Внешние (SRT UTF-8) English SDH [BD 3D]

General
Unique ID : 215724311886248634918097719427672456769 (0xA24AFDBF3E8788EAB5FA1EDB7EEA3E41)
Complete name : E:TheNutJob(2013)3D-halfOU(Ash61)MVOTheNutJob(2013)3D-halfOU(Ash61)MVO.mkv
Format : Matroska
Format version : Version 2
File size : 5.23 GiB
Duration : 1h 25mn
Overall bit rate : 8 719 Kbps
Movie name : Реальная белка / The Nut Job (2013) 3D
Encoded date : UTC 2014-04-05 22:14:36
Writing application : mkvmerge v5.8.0 ('No Sleep / Pillow') built on Sep 2 2012 15:37:04
Writing library : libebml v1.2.3 + libmatroska v1.3.0

Video
ID : 1
Format : AVC
Format/Info : Advanced Video Codec
Format profile : High@L4.1
Format settings, CABAC : Yes
Format settings, ReFrames : 4 frames
Codec ID : V_MPEG4/ISO/AVC
Duration : 1h 25mn
Bit rate : 7 458 Kbps
Width : 1 920 pixels
Height : 1 080 pixels
Display aspect ratio : 16:9
Frame rate mode : Constant
Frame rate : 23.976 fps
Color space : YUV
Chroma subsampling : 4:2:0
Bit depth : 8 bits
Scan type : Progressive
Bits/(Pixel*Frame) : 0.150
Stream size : 4.48 GiB (86%)
Title : BDRip by Ash61
Writing library : x264 core 129 r2245 bc13772
Encoding settings : cabac=1 / ref=4 / deblock=1:-3:-3 / analyse=0x3:0x113 / me=umh / subme=10 / psy=1 / psy_rd=1.00:0.15 / mixed_ref=1 / me_range=32 / chroma_me=1 / trellis=2 / 8x8dct=1 / cqm=0 / deadzone=21,11 / fast_pskip=1 / chroma_qp_offset=-3 / threads=12 / lookahead_threads=2 / sliced_threads=0 / nr=0 / decimate=1 / interlaced=0 / bluray_compat=0 / constrained_intra=0 / bframes=8 / b_pyramid=2 / b_adapt=2 / b_bias=0 / direct=3 / weightb=1 / open_gop=0 / weightp=2 / keyint=250 / keyint_min=23 / scenecut=40 / intra_refresh=0 / rc_lookahead=60 / rc=crf / mbtree=1 / crf=17.0 / qcomp=0.70 / qpmin=0 / qpmax=69 / qpstep=4 / vbv_maxrate=40000 / vbv_bufsize=30000 / crf_max=0.0 / nal_hrd=none / frame-packing=4 / ip_ratio=1.40 / aq=1:0.70
Language : English
Default : Yes
Forced : No

Audio #1
ID : 2
Format : AC-3
Format/Info : Audio Coding 3
Mode extension : CM (complete main)
Format settings, Endianness : Big
Codec ID : A_AC3
Duration : 1h 25mn
Bit rate mode : Constant
Bit rate : 448 Kbps
Channel(s) : 6 channels
Channel positions : Front: L C R, Side: L R, LFE
Sampling rate : 48.0 KHz
Bit depth : 16 bits
Compression mode : Lossy
Stream size : 275 MiB (5%)
Title : Многоголосый закадровый - BaibaKo
Language : Russian
Default : Yes
Forced : No

Audio #2
ID : 3
Format : AC-3
Format/Info : Audio Coding 3
Mode extension : CM (complete main)
Format settings, Endianness : Big
Codec ID : A_AC3
Duration : 1h 25mn
Bit rate mode : Constant
Bit rate : 640 Kbps
Channel(s) : 6 channels
Channel positions : Front: L C R, Side: L R, LFE
Sampling rate : 48.0 KHz
Bit depth : 16 bits
Compression mode : Lossy
Stream size : 393 MiB (7%)
Title : Original - BD 3D
Language : English
Default : No
Forced : No

Menu
00:00:00.000 : :1
00:02:35.614 : :2
00:05:24.574 : :3
00:09:57.430 : :4
00:14:58.481 : :5
00:17:30.091 : :6
00:22:18.837 : :7
00:27:58.677 : :8
00:32:01.169 : :9
00:37:50.435 : :10
00:40:19.042 : :11
00:44:56.611 : :12
00:48:14.266 : :13
00:53:17.528 : :14
00:58:14.991 : :15
01:03:04.072 : :16
01:08:48.624 : :17
01:13:57.183 : :18
01:19:32.059 : :19
01:23:11.737 : :20


















   Похожие торренты   Торрент   Размер 
В этой теме нет новых непрочитанных сообщений. Реальная белка / The Nut Job (2013) BDRip 1080p от Ash61 | 3D-Video | halfOU | Лицензия

191 | 35

5.35 ГБ

В этой теме нет новых непрочитанных сообщений. Best of 3D (Vol. 1-9) (2013) BDRip 1080p от Ash61 | 3D-Video | halfOU

146 | 133

35.86 ГБ

В этой теме нет новых непрочитанных сообщений. Беги / Run (2013) BDRip 1080p от Ash61 | 3D-Video | halfOU

306 | 180

10.08 ГБ

В этой теме нет новых непрочитанных сообщений. Мистер Гоу / Mi-seu-teo Go / Mr. Go (2013) BDRip 1080p от Ash61 | 3D-Video | halfOU | L1

107 | 67

17.45 ГБ

В этой теме нет новых непрочитанных сообщений. Четверо 2 / Si Da Ming Bu 2 / The Four 2 (2013) BDRip 1080p от Ash61 | 3D-Video | halfOU | L2

134 | 162

14.25 ГБ

В этой теме нет новых непрочитанных сообщений. Проклятье 3D 2 / Sadako 3D 2 (2013) BDRip 1080p от Ash61 | 3D-Video | halfOU | L2

129 | 55

9.04 ГБ

В этой теме нет новых непрочитанных сообщений. 3Д Шедевры Том 2 / 3D Masterpieces Vol.2 (2013) BDRip 1080p от Ash61 | 3D-Video | halfOU

19 | 3

3.61 ГБ




Вы не можете начинать темы
Вы не можете отвечать на сообщения
Вы не можете редактировать свои сообщения
Вы не можете удалять свои сообщения
Вы не можете добавлять вложения

Перейти:  
Для Мосгорсуда, Роскомнадзора и рекламодателей: mosgorsud-torrent[собачка]yandex.ru
 Вход
ppkBB3cker v.2 © 2008-2014 @ PPK
[ Time : 0.045s | 17 Queries | GZIP : Off ]

cron