img image001 image001 image001 image001 image001 image001 image001 image001 image001 image001 image001 image001 image001 image001 image001

Planets Sun Sun Sun
Статистика раздачи
Автор: Nickolas3434 | Размер: 285.81 МБ | Добавлен: 07 апр 2014
Раздают: 80    Качают: 12
Скачать торрент
Скачать торрент
Описание торрента

СообщениеДобавлено: 07 апр 2014 

Конь-огонь
Get a Horse!
(Русскоязычный видеоряд)



Год выпуска: 2013
Страна: США (Walt Disney Animation Studios)
Жанр: Мультфильм, Короткометражка, Комедия
Продолжительность: 0:06:07

Перевод: Профессиональный дублированный (лицензия)

Режиссер: Лорен МакМаллен / Lauren MacMullan
Продюсер: Джон Лассетер / John Lasseter

Роли озвучивали (дублировали): Уолт Дисней (Mickey Mouse (archive sound))(Максим Сергеев), Марселлит Гарнер (Minnie Mouse (archive sound))(Сауле Искакова), Расси Тейлор (Minnie Mouse)(Сауле Искакова), Билли Блэтчер (Peg-Leg Pete (archive sound))(Алексей Макрецкий), Уилл Райан (Peg-Leg Pete)(Алексей Макрецкий), Боб Берген, Пол Бриггс, Терри Дуглас, Джесс Харнелл

Описание: Продолжение приключений Микки Мауса, Минни, Кларабель Кау и Хорэс Хорсколлара в стиле 1930-х годов. Друзья едут по дороге и поют весёлую песенку. Но Пит пытается им помешать…

Доп. инфо: Мультик - доп с BD 3D CEE "Холодное сердце".
Первые ~1,5 минуты изображение в 2Д, монохромное, малоформатное.



Премьера: 11 июня 2013





Качество: BDRip (by Ash61)
Контейнер: MKV
Формат 3D: Half OverUnder / Вертикальная анаморфная стереопара
Порядок ракурсов: левый ракурс первый
Видео кодек: x264
Аудио кодек: AC3



Видео: AVC / 23,976 fps / 1920х1080p / ~4.8 Mbps

Аудио:
#1 - Русский / AC3 / 48 KHz / 5.1 ch / 640 Kbps (Дубляж - BD 3D CEE)
#2 - Английский / AC3 / 48 KHz / 5.1 ch / 640 Kbps (Original - BD 3D CEE)
#3 - Английский / AC3 / 48 KHz / 2 ch / 320 Kbps (Comments - BD 3D CEE)

Субтитры: (SRT)
Внешние (UTF-8):
#1 - Русские Форсированные (BD 3D CEE) (включены по умолчанию)
#2 - Русские Полные (BD 3D CEE)
#3 - English Full (BD 3D CEE)
#4 - English SDH (BD 3D CEE)

Вшитые (softsub):
#1 - Русские Форсированные (BD 3D CEE) (включены по умолчанию)

General
Unique ID : 248790795476017541394596121906595616964 (0xBB2B5D4213EF3763B2CD31361E7DD8C4)
Complete name : E:GetAHorse(2013)3D-halfOU(Ash61)Video.RusGetAHorse(2013)3D-halfOU(Ash61)Video.Rus.mkv
Format : Matroska
Format version : Version 2
File size : 286 MiB
Duration : 6mn 6s
Overall bit rate : 6 535 Kbps
Movie name : Конь-огонь / Get a Horse! (2013) 3D
Encoded date : UTC 2014-04-06 12:54:13
Writing application : mkvmerge v5.8.0 ('No Sleep / Pillow') built on Sep 2 2012 15:37:04
Writing library : libebml v1.2.3 + libmatroska v1.3.0

Video
ID : 1
Format : AVC
Format/Info : Advanced Video Codec
Format profile : High@L4.1
Format settings, CABAC : Yes
Format settings, ReFrames : 4 frames
Codec ID : V_MPEG4/ISO/AVC
Duration : 6mn 6s
Bit rate : 4 805 Kbps
Width : 1 920 pixels
Height : 1 080 pixels
Display aspect ratio : 16:9
Frame rate mode : Constant
Frame rate : 23.976 fps
Color space : YUV
Chroma subsampling : 4:2:0
Bit depth : 8 bits
Scan type : Progressive
Bits/(Pixel*Frame) : 0.097
Stream size : 210 MiB (74%)
Title : BDRip by Ash61 (русскоязычный видеоряд - BD 3D CEE)
Writing library : x264 core 129 r2245 bc13772
Encoding settings : cabac=1 / ref=4 / deblock=1:-3:-3 / analyse=0x3:0x113 / me=umh / subme=10 / psy=1 / psy_rd=1.00:0.15 / mixed_ref=1 / me_range=32 / chroma_me=1 / trellis=2 / 8x8dct=1 / cqm=0 / deadzone=21,11 / fast_pskip=1 / chroma_qp_offset=-3 / threads=12 / lookahead_threads=2 / sliced_threads=0 / nr=0 / decimate=1 / interlaced=0 / bluray_compat=0 / constrained_intra=0 / bframes=11 / b_pyramid=2 / b_adapt=2 / b_bias=0 / direct=3 / weightb=1 / open_gop=0 / weightp=2 / keyint=250 / keyint_min=23 / scenecut=40 / intra_refresh=0 / rc_lookahead=60 / rc=crf / mbtree=1 / crf=17.0 / qcomp=0.70 / qpmin=0 / qpmax=69 / qpstep=4 / vbv_maxrate=40000 / vbv_bufsize=30000 / crf_max=0.0 / nal_hrd=none / frame-packing=4 / ip_ratio=1.40 / aq=1:0.70
Language : English
Default : Yes
Forced : No

Audio #1
ID : 2
Format : AC-3
Format/Info : Audio Coding 3
Mode extension : CM (complete main)
Format settings, Endianness : Big
Codec ID : A_AC3
Duration : 6mn 6s
Bit rate mode : Constant
Bit rate : 640 Kbps
Channel(s) : 6 channels
Channel positions : Front: L C R, Side: L R, LFE
Sampling rate : 48.0 KHz
Bit depth : 16 bits
Compression mode : Lossy
Stream size : 28.0 MiB (10%)
Title : Дубляж - BD 3D CEE
Language : Russian
Default : Yes
Forced : No

Audio #2
ID : 3
Format : AC-3
Format/Info : Audio Coding 3
Mode extension : CM (complete main)
Format settings, Endianness : Big
Codec ID : A_AC3
Duration : 6mn 6s
Bit rate mode : Constant
Bit rate : 640 Kbps
Channel(s) : 6 channels
Channel positions : Front: L C R, Side: L R, LFE
Sampling rate : 48.0 KHz
Bit depth : 16 bits
Compression mode : Lossy
Stream size : 28.0 MiB (10%)
Title : Original - BD 3D CEE
Language : English
Default : No
Forced : No

Audio #3
ID : 4
Format : AC-3
Format/Info : Audio Coding 3
Format profile : Dolby Digital
Mode extension : CM (complete main)
Format settings, Endianness : Big
Codec ID : A_AC3
Duration : 6mn 6s
Bit rate mode : Constant
Bit rate : 320 Kbps
Channel(s) : 2 channels
Channel positions : Front: L R
Sampling rate : 48.0 KHz
Bit depth : 16 bits
Compression mode : Lossy
Stream size : 14.0 MiB (5%)
Title : Comments - BD 3D CEE
Language : English
Default : No
Forced : No

Text
ID : 5
Format : UTF-8
Codec ID : S_TEXT/UTF8
Codec ID/Info : UTF-8 Plain Text
Title : Форсированные (3 надписи - BD 3D CEE)
Language : Russian
Default : Yes
Forced : No










   Похожие торренты   Торрент   Размер 
В этой теме нет новых непрочитанных сообщений. Конь-огонь / Get a Horse! (2013) BDRip 1080p от Ash61 | 3D-Video | halfOU | L1

84 | 27

285.78 МБ

В этой теме нет новых непрочитанных сообщений. Самолеты: Огонь и вода / Planes: Fire and Rescue (2014) BDRip 1080p от Ash61 | 3D-Video | halfOU

458 | 24

4.48 ГБ

В этой теме нет новых непрочитанных сообщений. Боевой конь / War Horse (2011) BDRip 1080p от HQ-ViDEO | Лицензия

21 | 8

16.34 ГБ

В этой теме нет новых непрочитанных сообщений. 47 ронинов / 47 Ronin (2013) BDRip 1080p от Ash61 | 3D-Video | halfOU | Лицензия

381 | 67

8.61 ГБ

В этой теме нет новых непрочитанных сообщений. Самолеты / Planes (2013) BDRip 1080p от Ash61 | 3D-Video | halfOU | Лицензия

31 | 3

6.24 ГБ

В этой теме нет новых непрочитанных сообщений. Проклятье 3D 2 / Sadako 3D 2 (2013) BDRip 1080p от Ash61 | 3D-Video | halfOU | Лицензия

122 | 41

9.3 ГБ

В этой теме нет новых непрочитанных сообщений. Гравитация / Gravity (2013) BDRip 1080p от Ash61 | 3D-Video | halfOU | Лицензия

825 | 314

12.09 ГБ




Вы не можете начинать темы
Вы не можете отвечать на сообщения
Вы не можете редактировать свои сообщения
Вы не можете удалять свои сообщения
Вы не можете добавлять вложения

Перейти:  
Для Мосгорсуда, Роскомнадзора и рекламодателей: mosgorsud-torrent[собачка]yandex.ru
 Вход
ppkBB3cker v.2 © 2008-2014 @ PPK
[ Time : 0.030s | 15 Queries | GZIP : Off ]

Торрент трекер RUTOR.IN, Не можете зайти на rutor.org? Какой новый адрес рутор? Какое зеркало рутор? Не работает rutor.org и зеркала? Тогда наш торрент специально для вас. Rutor.in неофициальное зеркало rutor. В случае если у Вас заблокирован rutor или вдруг Вы не можете на него зайти, то Вы без труда сможете скачать бесплатно и без рекламы последние новинки кино, игр, сериалов и прочего у нас, на Rutor.in. Не нужно использовать прокси, чтобы зайти на рутор, достаточно воспользоваться нашим ресурсом. Все новые фильмы, игры, сериалы, книги и музыка за 2013 и 2014 годы через торрент бесплатно. Скачивайте фильмы в хорошем качестве, игры для пк, xbox, playstation без регистрации. У нас вы найдете новые Зарубежные сериалы и Русские сериалы 2013, 2014, 2015 годов. Оставайтесь с нами, качайте любимые фильмы, игры, сериалы, книги и музыку.
cron