img image001 image001 image001 image001 image001 image001 image001 image001 image001 image001 image001 image001 image001 image001 image001

Planets Sun Sun Sun
Статистика раздачи
Автор: Nickolas3434 | Размер: 1.45 ГБ | Добавлен: 08 апр 2014
Раздают: 170    Качают: 60
Скачать торрент
Скачать торрент
Описание торрента

СообщениеДобавлено: 08 апр 2014 

Рождественское приключение / Abominable Christmas

Страна: США
Жанр: мультфильм, семейный
Продолжительность: 00:43:37
Год выпуска: 2012
Перевод: Профессиональный (дублированный) Канал "Дисней"
Русские субтитры: нет

Режиссёр: Чад Ван Де Кир / Chad Van De Keere

Роли озвучивали: Изабелла Акрес, Дрейк Белл, Эмилио Эстевес, Нолан Гоулд, Мэттью Лиллард, Рэй Лиотта, Джейн Линч, Эриель Винтер

Роли дублировали: Людмила Иванова, Михаил Тихонов, Жанна Никонова, Владимир Рыбальченко, Людмила Ильина



Описание: В Рождество нет ничего невозможного! Особенно, если ты... снежный человек! Веселая семейка мохнатых созданий живет высоко в горах и собирается спуститься в город, где люди готовятся к празднованию самого сказочного праздника в году! Они не сомневаются, что жители примут пушистых гостей радушно, но как на самом деле развернутся события?
Семпл: Semple
Качество: DVDRip 720
Формат: MKV
Видео: AVC, 1280x720 (16:9), 23.976 fps, 4 563 Kbps (0.207 bit/pixel)
Аудио : AC-3, 48.0 KHz, 2 ch, 192 Kbps, CBR (Russian)
Субтитры: отсутствуют
Код:
Общее
Уникальный идентификатор                 : 243156250871764560678363855317927311863 (0xB6EE30C2C3FBE0FDBFB85E908389B9F7)
Полное имя                               : D:Рипы выкладка [Deadmauvlad]Рипы готовыеAbominable Christmas_2012_DVDRip.720.Deadmauvlad.mkv
Формат                                   : Matroska
Версия формата                           : Version 4 / Version 2
Размер файла                             : 1,45 Гбайт
Продолжительность                        : 43 м.
Общий поток                              : 4756 Кбит/сек
Дата кодирования                         : UTC 2014-04-07 09:20:24
Программа кодирования                    : mkvmerge v6.1.0 ('Old Devil') built on Mar  4 2013 09:10:42
Библиотека кодирования                   : libebml v1.3.0 + libmatroska v1.4.0

Видео
Идентификатор                            : 1
Формат                                   : AVC
Формат/Информация                        : Advanced Video Codec
Профиль формата                          : High@L4.1
Параметр CABAC формата                   : Да
Параметр ReFrames формата                : 3 кадра
Идентификатор кодека                     : V_MPEG4/ISO/AVC
Продолжительность                        : 43 м.
Битрейт                                  : 4563 Кбит/сек
Ширина                                   : 1280 пикселей
Высота                                   : 720 пикселей
Соотношение сторон                       : 16:9
Режим частоты кадров                     : Постоянный
Частота кадров                           : 23,976 кадра/сек
Цветовое пространство                    : YUV
Субдискретизация насыщенности            : 4:2:0
Битовая глубина                          : 8 бит
Тип развёртки                            : Прогрессивная
Бит/(Пиксели*Кадры)                      : 0.207
Размер потока                            : 1,36 Гбайт (94%)
Заголовок                                : Abominable Christmas_2012_DVDRip.720.P.Deadmauvlad
Библиотека кодирования                   : x264 core 130 r2273 b3065e6
Настройки программы                      : cabac=1 / ref=3 / deblock=1:-2:-1 / analyse=0x3:0x113 / me=hex / subme=7 / psy=1 / psy_rd=1.00:0.00 / mixed_ref=1 / me_range=16 / chroma_me=1 / trellis=1 / 8x8dct=1 / cqm=0 / deadzone=21,11 / fast_pskip=1 / chroma_qp_offset=-2 / threads=3 / lookahead_threads=1 / sliced_threads=0 / nr=0 / decimate=0 / interlaced=0 / bluray_compat=1 / constrained_intra=0 / bframes=3 / b_pyramid=1 / b_adapt=1 / b_bias=0 / direct=1 / weightb=1 / open_gop=0 / weightp=1 / keyint=250 / keyint_min=1 / scenecut=40 / intra_refresh=0 / rc_lookahead=40 / rc=2pass / mbtree=1 / bitrate=4563 / ratetol=1.0 / qcomp=0.75 / qpmin=1 / qpmax=69 / qpstep=4 / cplxblur=20.0 / qblur=0.5 / ip_ratio=1.40 / aq=1:0.80
Язык                                     : Russian
Default                                  : Да
Forced                                   : Нет
Основные цвета                           : BT.709
Характеристики трансфера                 : BT.709
Коэффициенты матрицы                     : BT.709

Аудио
Идентификатор                            : 2
Формат                                   : AC-3
Формат/Информация                        : Audio Coding 3
Расширение режима                        : CM (complete main)
Параметр Endianness формата              : Big
Идентификатор кодека                     : A_AC3
Продолжительность                        : 43 м.
Вид битрейта                             : Постоянный
Битрейт                                  : 192 Кбит/сек
Каналы                                   : 2 канала
Расположение каналов                     : Front: L R
Частота                                  : 48,0 КГц
Битовая глубина                          : 16 бит
Метод сжатия                             : С потерями
Размер потока                            : 59,9 Мбайт (4%)
Заголовок                                : Профессиональный (дублированный) Канал "Дисней"
Язык                                     : Russian
Default                                  : Да
Forced                                   : Да

...first pass...

x264 [info]: frame I:766 Avg QP:10.26 size:151248
x264 [info]: frame P:19914 Avg QP:14.10 size: 45458
x264 [info]: frame B:42081 Avg QP:16.35 size: 10953
x264 [info]: consecutive B-frames: 6.4% 9.4% 9.3% 74.9%
x264 [info]: mb I I16..4: 19.0% 0.0% 81.0%
x264 [info]: mb P I16..4: 14.0% 0.0% 0.0% P16..4: 64.3% 0.0% 0.0% 0.0% 0.0% skip:21.7%
x264 [info]: mb B I16..4: 1.5% 0.0% 0.0% B16..8: 23.8% 0.0% 0.0% direct:16.0% skip:58.7% L0:29.8% L1:38.9% BI:31.3%
x264 [info]: final ratefactor: 14.88
x264 [info]: coded y,uvDC,uvAC intra: 90.8% 75.7% 60.0% inter: 29.2% 23.6% 11.2%
x264 [info]: i16 v,h,dc,p: 33% 26% 28% 12%
x264 [info]: i4 v,h,dc,ddl,ddr,vr,hd,vl,hu: 22% 26% 13% 3% 9% 5% 7% 6% 9%
x264 [info]: i8c dc,h,v,p: 46% 25% 24% 6%
x264 [info]: Weighted P-Frames: Y:2.1% UV:1.5%
x264 [info]: kb/s:4529.35

x264 [total]: encoded 62761 frames, 33.33 fps, 4529.35 kb/s

...last pass...

x264 [info]: frame I:766 Avg QP:10.84 size:141436
x264 [info]: frame P:19914 Avg QP:13.90 size: 46345
x264 [info]: frame B:42081 Avg QP:16.32 size: 10973
x264 [info]: consecutive B-frames: 6.4% 9.4% 9.3% 74.9%
x264 [info]: mb I I16..4: 8.0% 71.8% 20.3%
x264 [info]: mb P I16..4: 1.2% 13.5% 2.1% P16..4: 28.8% 19.3% 13.4% 0.0% 0.0% skip:21.9%
x264 [info]: mb B I16..4: 0.1% 0.8% 0.2% B16..8: 24.6% 6.8% 2.1% direct: 5.4% skip:60.0% L0:35.4% L1:44.4% BI:20.2%
x264 [info]: 8x8 transform intra:78.1% inter:50.3%
x264 [info]: coded y,uvDC,uvAC intra: 92.5% 88.2% 77.5% inter: 27.2% 27.5% 15.9%
x264 [info]: i16 v,h,dc,p: 32% 19% 6% 43%
x264 [info]: i8 v,h,dc,ddl,ddr,vr,hd,vl,hu: 19% 20% 17% 5% 7% 7% 8% 7% 9%
x264 [info]: i4 v,h,dc,ddl,ddr,vr,hd,vl,hu: 17% 21% 13% 6% 11% 8% 10% 6% 7%
x264 [info]: i8c dc,h,v,p: 45% 26% 21% 8%
x264 [info]: Weighted P-Frames: Y:2.1% UV:1.5%
x264 [info]: ref P L0: 78.7% 19.1% 2.2%
x264 [info]: ref B L0: 96.8% 3.2%
x264 [info]: ref B L1: 95.4% 4.6%
x264 [info]: kb/s:4562.87

x264 [total]: encoded 62761 frames, 9.81 fps, 4562.87 kb/s
[/code]






   Похожие торренты   Торрент   Размер 
В этой теме нет новых непрочитанных сообщений. Рождественское приключение / Abominable Christmas (2012) DVDRip от Deadmauvlad | D

426 | 10

744.73 МБ

В этой теме нет новых непрочитанных сообщений. Рождественское приключение / Abominable Christmas (2012) DVDRip-AVC от Deadmauvlad | D

57 | 2

697.44 МБ

В этой теме нет новых непрочитанных сообщений. Табалуга и Лео: Рождественское приключение / Tabaluga and Leo: Christmas adventure (2003) DVDRip от Gold Cartoon KINOREAKTOR (Sheikn)

4 | 3

1.11 ГБ

В этой теме нет новых непрочитанных сообщений. Рождественское приключение Бетховена / Beethoven's Christmas Adventure (2011) WEB-DLRip

153 | 4

1.46 ГБ

В этой теме нет новых непрочитанных сообщений. Рождественское желание / Wish For Christmas (2016) DVDRip | L

45 | 1

1.37 ГБ

В этой теме нет новых непрочитанных сообщений. Рождественское ограбление / Christmas Caper (2007) DVDRip

56 | 6

693.31 МБ

В этой теме нет новых непрочитанных сообщений. Великий Руперт / Рождественское Желание / The Great Rupert / A Christmas Wish (1950) DVDRip l цветная реставрированная версия

2 | 3

1.36 ГБ




Вы не можете начинать темы
Вы не можете отвечать на сообщения
Вы не можете редактировать свои сообщения
Вы не можете удалять свои сообщения
Вы не можете добавлять вложения

Перейти:  
Для Мосгорсуда, Роскомнадзора и рекламодателей: mosgorsud-torrent[собачка]yandex.ru
 Вход
ppkBB3cker v.2 © 2008-2014 @ PPK
[ Time : 0.045s | 16 Queries | GZIP : Off ]

Торрент трекер RUTOR.IN, Не можете зайти на rutor.org? Какой новый адрес рутор? Какое зеркало рутор? Не работает rutor.org и зеркала? Тогда наш торрент специально для вас. Rutor.in неофициальное зеркало rutor. В случае если у Вас заблокирован rutor или вдруг Вы не можете на него зайти, то Вы без труда сможете скачать бесплатно и без рекламы последние новинки кино, игр, сериалов и прочего у нас, на Rutor.in. Не нужно использовать прокси, чтобы зайти на рутор, достаточно воспользоваться нашим ресурсом. Все новые фильмы, игры, сериалы, книги и музыка за 2013 и 2014 годы через торрент бесплатно. Скачивайте фильмы в хорошем качестве, игры для пк, xbox, playstation без регистрации. У нас вы найдете новые Зарубежные сериалы и Русские сериалы 2013, 2014, 2015 годов. Оставайтесь с нами, качайте любимые фильмы, игры, сериалы, книги и музыку.
cron