img image001 image001 image001 image001 image001 image001 image001 image001 image001 image001 image001 image001 image001 image001 image001

Planets Sun Sun Sun
Статистика раздачи
Автор: Nickolas3434 | Размер: 1.51 ГБ | Добавлен: 10 апр 2014
Раздают: 202    Качают: 133
Скачать торрент
Скачать торрент
Описание торрента

СообщениеДобавлено: 10 апр 2014 

Информация о фильме
Название: Носорог Отто
Оригинальное название: Otto er et nasehorn / Otto The Rhino
Год выхода: 2013
Жанр: мультфильм, комедия, семейный
Режиссер: Кеннет Кайнц
В ролях: Ларс Бригманн, Кая Брюэль, Аста Даниэльссон, Хелле Доллерис, Сёс Эгелинд, Миккел Бринш Хансен, Том Дженсен

О фильме:
В одном скандинавском городке, в одном доме, на последнем этаже живёт самый обыкновенный мальчик Топпер... Однажды он находит волшебный карандаш, и обнаруживает, что всё, нарисованное этим карандашом, оживает. Топпер зовёт к себе своего друга Вигго. Вместе они решают испытать карандаш, и Топпер рисует на стене комнаты носорога. Когда носорог ожил, ребятам прибавилось хлопот: чем его кормить и как вывести из дома? К тому же, не все жители дома рады такому соседу...


Страна: Дания
Студия: Crone Film Produktion A/S, Wil Film Aps, European Film Bonds
Продолжительность: 01:15:53
Перевод: Любительское одноголосое (barin101)

Файл
Кодек: h.264
Качество: BDRip-AVC
Видео: AVC, 1024 x 552, ~2150 kbps
Звук: Русский: AC-3, 2 ch, 192 kbps / Английский: AC-3, 6 ch, 448 kbps
Субтитры: Английский

Семпл

Общее
Уникальный идентификатор : 168348648403719580577546155723716462494 (0x7EA6C532C2870C1E037BA147C20E879E)
Полное имя : H:Носорог Отто Otto er et nasehorn Otto The Rhino (2013)Otto.The.Rhino.2013.Blu.Ray.720p.CINEMANIA(2).mkv
Формат : Matroska
Версия формата : Version 2
Размер файла : 1,51 Гбайт
Продолжительность : 1 ч. 15 м.
Режим общего битрейта : Переменный
Общий поток : 2846 Кбит/сек
Программа кодирования : Lavf51.12.1
Библиотека кодирования : Lavf51.12.1

Видео
Идентификатор : 1
Формат : AVC
Формат/Информация : Advanced Video Codec
Профиль формата : Baseline@L3.1
Параметр CABAC формата : Нет
Параметр ReFrames формата : 1 кадр
Параметр GOP формата : M=1, N=12
Идентификатор кодека : V_MPEG4/ISO/AVC
Продолжительность : 1 ч. 15 м.
Вид битрейта : Переменный
Битрейт : 2150 Кбит/сек
Максимальный битрейт : 3300 Кбит/сек
Ширина : 1024 пикселя
Высота : 552 пикселя
Соотношение сторон : 1,85:1
Режим частоты кадров : Постоянный
Частота кадров : 23,976 кадра/сек
Частота кадров в оригинале : 24,000 кадра/сек
Цветовое пространство : YUV
Субдискретизация насыщенности : 4:2:0
Битовая глубина : 8 бит
Тип развёртки : Прогрессивная
Бит/(Пиксели*Кадры) : 0.159
Размер потока : 1,14 Гбайт (76%)
Язык : English
Default : Да
Forced : Нет

Аудио #1
Идентификатор : 2
Формат : AC-3
Формат/Информация : Audio Coding 3
Расширение режима : CM (complete main)
Параметр Endianness формата : Big
Идентификатор кодека : A_AC3
Продолжительность : 1 ч. 15 м.
Вид битрейта : Постоянный
Битрейт : 192 Кбит/сек
Каналы : 2 канала
Расположение каналов : Front: L R
Частота : 48,0 КГц
Битовая глубина : 16 бит
Метод сжатия : С потерями
Размер потока : 104 Мбайт (7%)
Язык : Russian
Default : Да
Forced : Нет

Аудио #2
Идентификатор : 4
Формат : AC-3
Формат/Информация : Audio Coding 3
Расширение режима : CM (complete main)
Параметр Endianness формата : Big
Идентификатор кодека : A_AC3
Продолжительность : 1 ч. 15 м.
Вид битрейта : Постоянный
Битрейт : 448 Кбит/сек
Каналы : 6 каналов
Расположение каналов : Front: L C R, Side: L R, LFE
Частота : 48,0 КГц
Битовая глубина : 16 бит
Метод сжатия : С потерями
Размер потока : 243 Мбайт (16%)
Язык : English
Default : Да
Forced : Нет

Текст
Идентификатор : 3
Формат : UTF-8
Идентификатор кодека : S_TEXT/UTF8
Идентификатор кодека/Информация : UTF-8 Plain Text
Язык : English
Default : Да
Forced : Нет



   Похожие торренты   Торрент   Размер 
В этой теме нет новых непрочитанных сообщений. Носорог Отто / Otto er et nasehorn / Otto The Rhino (2013) BDRip 720p от CINEMANIA | L1

154 | 75

2.8 ГБ

В этой теме нет новых непрочитанных сообщений. Носорог Отто / Otto er et nasehorn / Otto The Rhino (2013) BDRip 1080p от CINEMANIA | L1

59 | 55

5.85 ГБ

В этой теме нет новых непрочитанных сообщений. 8 с половиной / Otto E Mezzo / 8½ (1963) BDRip от HQCLUB

17 | 2

2.19 ГБ

В этой теме нет новых непрочитанных сообщений. Otto Dix - Чудные дни (2010) MP3

47 | 4

127.79 МБ

В этой теме нет новых непрочитанных сообщений. Otto Dix - Анимус (Animus) (2015) MP3

225 | 23

109.72 МБ

В этой теме нет новых непрочитанных сообщений. Otto Dix - Дискография (2005-2010) MP3

382 | 25

681.75 МБ

В этой теме нет новых непрочитанных сообщений. Vitaly Otto - City of Trance #024 (2015) MP3

23 | 11

138.66 МБ




Вы не можете начинать темы
Вы не можете отвечать на сообщения
Вы не можете редактировать свои сообщения
Вы не можете удалять свои сообщения
Вы не можете добавлять вложения

Перейти:  
Для Мосгорсуда, Роскомнадзора и рекламодателей: mosgorsud-torrent[собачка]yandex.ru
 Вход
ppkBB3cker v.2 © 2008-2014 @ PPK
[ Time : 0.030s | 15 Queries | GZIP : Off ]

Торрент трекер RUTOR.IN, Не можете зайти на rutor.org? Какой новый адрес рутор? Какое зеркало рутор? Не работает rutor.org и зеркала? Тогда наш торрент специально для вас. Rutor.in неофициальное зеркало rutor. В случае если у Вас заблокирован rutor или вдруг Вы не можете на него зайти, то Вы без труда сможете скачать бесплатно и без рекламы последние новинки кино, игр, сериалов и прочего у нас, на Rutor.in. Не нужно использовать прокси, чтобы зайти на рутор, достаточно воспользоваться нашим ресурсом. Все новые фильмы, игры, сериалы, книги и музыка за 2013 и 2014 годы через торрент бесплатно. Скачивайте фильмы в хорошем качестве, игры для пк, xbox, playstation без регистрации. У нас вы найдете новые Зарубежные сериалы и Русские сериалы 2013, 2014, 2015 годов. Оставайтесь с нами, качайте любимые фильмы, игры, сериалы, книги и музыку.