img image001 image001 image001 image001 image001 image001 image001 image001 image001 image001 image001 image001 image001 image001 image001

Planets Sun Sun Sun
Статистика раздачи
Автор: Nickolas3434 | Размер: 1.46 ГБ | Добавлен: 10 апр 2014
Раздают: 37    Качают: 73
Скачать торрент
Скачать торрент
Описание торрента

СообщениеДобавлено: 10 апр 2014 


Страна: Китай / Синема Престиж
Жанр: мультфильм, фэнтези, приключения
Год выпуска: 2012
Продолжительность: 01:16:14

Перевод: Профессиональный (дублированный)
Cубтитры: нет
Оригинальная аудиодорожка: нет

Режиссер: Ван Юнфей / Wang Yunfei

В ролях: Лу Куи, Лью Лу, Менг Канлин

Описание: Однажды 10-летней Маше повстречалось странное существо по имени Ники — белый полулев-полутигр, появившийся на свет из волшебного камня. С этого момента с девочкой начали происходить невероятные чудеса. Она внезапно обнаружила, что понимает язык животных. А вскоре ее и Ники проглотило огромное Облако-Кит. А в очень-очень трудную минуту на помощь друзьям пришел Дядя Миша, огромный дикий медведь, на лицо ужасный, но добрый внутри. А еще они отправились в Рай Животных — фантастическую страну чудес, куда могут попасть только 99 счастливчиков — один раз в десять лет. Но людям туда вход заказан, потому что человек, пробывший там более трех дней, навсегда превратится в животное…



Качество: DVDRip / DVD5 R5
Формат: AVI

Видео: 720x400 (16:9), 25.000 fps, XviD ~ 2343 kbps avg, 0.325 bit/pixel
Аудио: 48 kHz, Dolby AC3, 6 ch, 384 kbps, русский

Раздача от:
Общее
Полное имя : Priklucheniya.Mashi.v.strane.chudes.2012.D.DVDRip_[New-Team]_by_avproh.avi
Формат : AVI
Формат/Информация : Audio Video Interleave
Размер файла : 1,46 Гбайт
Продолжительность : 1 ч. 16 м.
Общий поток : 2736 Кбит/сек
Программа кодирования : VirtualDubMod 1.5.10.3 | www.virtualdub-fr.org || (build 2550/release)
Библиотека кодирования : VirtualDubMod build 2550/release

Видео
Идентификатор : 0
Формат : MPEG-4 Visual
Профиль формата : Advanced Simple@L5
Параметр BVOP формата : 1
Параметр QPel формата : Нет
Параметр GMC формата : Без точки перехода
Параметр матрицы формата : Выборочная
Идентификатор кодека : XVID
Идентификатор кодека/Подсказка : XviD
Продолжительность : 1 ч. 16 м.
Битрейт : 2343 Кбит/сек
Ширина : 720 пикселей
Высота : 400 пикселей
Соотношение сторон : 16:9
Частота кадров : 25,000 кадров/сек
Цветовое пространство : YUV
Субдискретизация насыщенности : 4:2:0
Битовая глубина : 8 бит
Тип развёртки : Прогрессивная
Метод сжатия : С потерями
Бит/(Пиксели*Кадры) : 0.325
Размер потока : 1,25 Гбайт (86%)
Библиотека кодирования : XviD 73

Аудио
Идентификатор : 1
Формат : AC-3
Формат/Информация : Audio Coding 3
Расширение режима : CM (complete main)
Параметр Endianness формата : Big
Идентификатор кодека : 2000
Продолжительность : 1 ч. 16 м.
Вид битрейта : Постоянный
Битрейт : 384 Кбит/сек
Каналы : 6 каналов
Расположение каналов : Front: L C R, Side: L R, LFE
Частота : 48,0 КГц
Битовая глубина : 16 бит
Метод сжатия : С потерями
Размер потока : 209 Мбайт (14%)
Выравнивание : Разделение по промежуткам
Продолжительность промежутка : 40 мс. (1,00 видеокадр)
Время предзагрузки промежутка : 500 мс.





   Похожие торренты   Торрент   Размер 
В этой теме нет новых непрочитанных сообщений. Приключения Маши в Стране Чудес / Yugo and Lala (2012) DVDRip-AVC от New-Team | D | лицензия

123 | 37

1.46 ГБ

В этой теме нет новых непрочитанных сообщений. Приключения Маши в Стране Чудес / Yugo and Lala (2012) DVDRip от New-Team | D | лицензия

62 | 23

745.13 МБ

В этой теме нет новых непрочитанных сообщений. Приключения Маши в Стране Чудес / Yugo and Lala (2012) DVD5 R5 от New-Team | D | лицензия

36 | 18

4.34 ГБ

В этой теме нет новых непрочитанных сообщений. Приключения Маши в Стране Чудес / Yugo and Lala (2012) WEBRip

1 | 2

743.03 МБ

В этой теме нет новых непрочитанных сообщений. Приключения Маши в Стране Чудес / Yugo and Lala (2012) HD | D | Трейлер

4 | 4

16.6 МБ

В этой теме нет новых непрочитанных сообщений. Приключения в стране Лалалупсия. В поисках Сказки / Adventures in Lalaloopsy Land. The search for Pillow (2012) DVDRip от New-Team | D

152 | 6

1.46 ГБ

В этой теме нет новых непрочитанных сообщений. Оксана в стране чудес / Saxana a Lexikon kouzel (2011) DVDRip | Лицензия

25 | 6

1.46 ГБ




Вы не можете начинать темы
Вы не можете отвечать на сообщения
Вы не можете редактировать свои сообщения
Вы не можете удалять свои сообщения
Вы не можете добавлять вложения

Перейти:  
Для Мосгорсуда, Роскомнадзора и рекламодателей: mosgorsud-torrent[собачка]yandex.ru
 Вход
ppkBB3cker v.2 © 2008-2014 @ PPK
[ Time : 0.055s | 15 Queries | GZIP : Off ]

Торрент трекер RUTOR.IN, Не можете зайти на rutor.org? Какой новый адрес рутор? Какое зеркало рутор? Не работает rutor.org и зеркала? Тогда наш торрент специально для вас. Rutor.in неофициальное зеркало rutor. В случае если у Вас заблокирован rutor или вдруг Вы не можете на него зайти, то Вы без труда сможете скачать бесплатно и без рекламы последние новинки кино, игр, сериалов и прочего у нас, на Rutor.in. Не нужно использовать прокси, чтобы зайти на рутор, достаточно воспользоваться нашим ресурсом. Все новые фильмы, игры, сериалы, книги и музыка за 2013 и 2014 годы через торрент бесплатно. Скачивайте фильмы в хорошем качестве, игры для пк, xbox, playstation без регистрации. У нас вы найдете новые Зарубежные сериалы и Русские сериалы 2013, 2014, 2015 годов. Оставайтесь с нами, качайте любимые фильмы, игры, сериалы, книги и музыку.