img image001 image001 image001 image001 image001 image001 image001 image001 image001 image001 image001 image001 image001 image001 image001

Planets Sun Sun Sun
Статистика раздачи
Автор: Nickolas3434 | Размер: 1.29 ГБ | Добавлен: 13 апр 2014
Раздают: 368    Качают: 57
Скачать торрент
Скачать торрент
Описание торрента

СообщениеДобавлено: 13 апр 2014 

Информация о фильме
Название: Карлик Нос
Год выхода: 2003
Жанр: мультфильм, мюзикл, фэнтези
Режиссер: Илья Максимов
В ролях: Альберт Асадуллин, Елена Шульман, Евгения Игумнова, Наталья Данилова, Игорь Шибанов, Иван Краско, Виктор Сухоруков, Анатолий Петров, Татьяна Иванова, Алексей Гурьев

О фильме: В основу сюжета положена волшебная сказка Вильгельма Гауфа. Для того чтобы осуществить свои коварные планы, злой колдунье нужен ребенок с очень добрым сердцем. Обманом она заманивает к себе маленького Якоба — сына сапожника и зеленщицы.

Когда Якоб отказывается участвовать в ее сомнительных делах, ведьма превращает его в уродливого карлика. Но вечная сила любви и дружбы помогает героям сказки рассеять злые чары…



Выпущено: Анимационная студия Мельница
Продолжительность: 01:18:55
Перевод: Оригинал (лицензия)

Файл
Кодек: x264
Качество: DVDRip-AVC
Видео: 768x462 (1,662), 25 fps, 1890 kbps
Аудио: AC-3, 6 ch, 448 kbps
Скачать: сэмпл

Скриншоты

Общее
Уникальный идентификатор : 254802226690195159357357420175123026595 (0xBFB11FB32FBF0C9E9C18535A949812A3)
Полное имя : Karlik.Nos.2003.DVDRip.AVC.Rus.mkv
Формат : Matroska
Версия формата : Version 2
Размер файла : 1,29 Гбайт
Продолжительность : 1 ч. 18 м.
Общий поток : 2334 Кбит/сек
Название фильма : Карлик Нос (2003)
Дата кодирования : UTC 2014-04-10 19:31:04
Программа кодирования : mkvmerge v5.8.0 ('No Sleep / Pillow') built on Sep 2 2012 15:37:04
Библиотека кодирования : libebml v1.2.3 + libmatroska v1.3.0

Видео
Идентификатор : 1
Формат : AVC
Формат/Информация : Advanced Video Codec
Профиль формата : High@L4.1
Параметр CABAC формата : Да
Параметр ReFrames формата : 11 кадров
Идентификатор кодека : V_MPEG4/ISO/AVC
Продолжительность : 1 ч. 18 м.
Битрейт : 1885 Кбит/сек
Ширина : 768 пикселей
Высота : 462 пикселя
Соотношение сторон : 1,662
Режим частоты кадров : Постоянный
Частота кадров : 25,000 кадров/сек
Цветовое пространство : YUV
Субдискретизация насыщенности : 4:2:0
Битовая глубина : 8 бит
Тип развёртки : Прогрессивная
Бит/(Пиксели*Кадры) : 0.213
Размер потока : 1,01 Гбайт (79%)
Заголовок : Release by AlexKa
Библиотека кодирования : x264 core 142 r2409 d6b4e63
Настройки программы : cabac=1 / ref=11 / deblock=1:0:0 / analyse=0x3:0x133 / me=tesa / subme=9 / psy=1 / psy_rd=1.00:0.00 / mixed_ref=1 / me_range=32 / chroma_me=1 / trellis=2 / 8x8dct=1 / cqm=0 / deadzone=21,11 / fast_pskip=0 / chroma_qp_offset=-2 / threads=12 / lookahead_threads=2 / sliced_threads=0 / nr=0 / decimate=1 / interlaced=0 / bluray_compat=0 / constrained_intra=0 / bframes=7 / b_pyramid=2 / b_adapt=2 / b_bias=0 / direct=3 / weightb=1 / open_gop=0 / weightp=2 / keyint=250 / keyint_min=25 / scenecut=40 / intra_refresh=0 / rc=2pass / mbtree=0 / bitrate=1885 / ratetol=1.0 / qcomp=0.60 / qpmin=0 / qpmax=69 / qpstep=4 / cplxblur=20.0 / qblur=0.5 / ip_ratio=1.40 / pb_ratio=1.30 / aq=1:1.00
Язык : Russian

Аудио
Идентификатор : 2
Формат : AC-3
Формат/Информация : Audio Coding 3
Расширение режима : CM (complete main)
Параметр Endianness формата : Big
Идентификатор кодека : A_AC3
Продолжительность : 1 ч. 18 м.
Вид битрейта : Постоянный
Битрейт : 448 Кбит/сек
Каналы : 6 каналов
Расположение каналов : Front: L C R, Side: L R, LFE
Частота : 48,0 КГц
Битовая глубина : 16 бит
Метод сжатия : С потерями
Размер потока : 253 Мбайт (19%)
Заголовок : Rus
Язык : Russian

Меню
00:00:00.000 : :Chapter 01
00:01:33.880 : :Chapter 02
00:05:17.160 : :Chapter 03
00:08:26.040 : :Chapter 04
00:11:00.400 : :Chapter 05
00:15:48.760 : :Chapter 06
00:20:38.080 : :Chapter 07
00:25:18.680 : :Chapter 08
00:28:00.880 : :Chapter 09
00:31:38.280 : :Chapter 10
00:36:25.040 : :Chapter 11
00:40:08.760 : :Chapter 12
00:43:27.080 : :Chapter 13
00:48:36.720 : :Chapter 14
00:55:07.360 : :Chapter 15
00:59:31.000 : :Chapter 16
01:03:10.240 : :Chapter 17
01:08:03.480 : :Chapter 18
01:10:42.680 : :Chapter 19
01:15:19.120 : :Chapter 20



   Похожие торренты   Торрент   Размер 
В этой теме нет новых непрочитанных сообщений. Карлик Нос (2003) DVDRip

19 | 5

692.48 МБ

В этой теме нет новых непрочитанных сообщений. Карлик нос (2003) DVDRip

192 | 13

1.46 ГБ

В этой теме нет новых непрочитанных сообщений. Карлик Нос (2003) DVDRip от Киномагия

7 | 4

1001.43 МБ

В этой теме нет новых непрочитанных сообщений. Карлик нос (2003) DVDRip от ExKinoRay

63 | 7

1.47 ГБ

В этой теме нет новых непрочитанных сообщений. Карлик Нос (2003) PC

241 | 6

528.7 МБ

В этой теме нет новых непрочитанных сообщений. Желтый карлик (2001) DVDRip от Youtracker

41 | 6

1.45 ГБ

В этой теме нет новых непрочитанных сообщений. Желтый карлик (2001) DVDRip от Youtracker

5 | 4

744.73 МБ




Вы не можете начинать темы
Вы не можете отвечать на сообщения
Вы не можете редактировать свои сообщения
Вы не можете удалять свои сообщения
Вы не можете добавлять вложения

Перейти:  
Для Мосгорсуда, Роскомнадзора и рекламодателей: mosgorsud-torrent[собачка]yandex.ru
 Вход
ppkBB3cker v.2 © 2008-2014 @ PPK
[ Time : 0.051s | 16 Queries | GZIP : Off ]

Торрент трекер RUTOR.IN, Не можете зайти на rutor.org? Какой новый адрес рутор? Какое зеркало рутор? Не работает rutor.org и зеркала? Тогда наш торрент специально для вас. Rutor.in неофициальное зеркало rutor. В случае если у Вас заблокирован rutor или вдруг Вы не можете на него зайти, то Вы без труда сможете скачать бесплатно и без рекламы последние новинки кино, игр, сериалов и прочего у нас, на Rutor.in. Не нужно использовать прокси, чтобы зайти на рутор, достаточно воспользоваться нашим ресурсом. Все новые фильмы, игры, сериалы, книги и музыка за 2013 и 2014 годы через торрент бесплатно. Скачивайте фильмы в хорошем качестве, игры для пк, xbox, playstation без регистрации. У нас вы найдете новые Зарубежные сериалы и Русские сериалы 2013, 2014, 2015 годов. Оставайтесь с нами, качайте любимые фильмы, игры, сериалы, книги и музыку.
cron