img image001 image001 image001 image001 image001 image001 image001 image001 image001 image001 image001 image001 image001 image001 image001

Planets Sun Sun Sun
Статистика раздачи
Автор: Nickolas3434 | Размер: 3.99 ГБ | Добавлен: 13 апр 2014
Раздают: 172    Качают: 214
Скачать торрент
Скачать торрент
Описание торрента

СообщениеДобавлено: 13 апр 2014 


Информация о фильме
Название: Феи: Загадка пиратского острова
Оригинальное название: The Pirate Fairy
Год выпуска: 2014
Жанр: Мультфильм, фэнтези, детский, приключения
Режиссер: Пегги Холмс
В ролях: Том Хиддлстон, Кристина Хендрикс, Мэй Уитман
О фильме: Феи — это маленькие существа природы, обладают особыми, волшебными способностями. Одной из таких есть, Динь — Динь, она родилась из первого смеха младенца с зонтиком одуванчика, они прилетели в Долину Фей, на волшебный остров Нетландия. Там юное создание перепробовала много чего, пока не узнала, что ее предназначение быть мастерицей. Динь — Динь, постоянно искала приключения, на свою голову. Ее подруги Иридесса — фея света, Розетта — садовая фея, фея всех животных и птиц — Фауна, также фея воды — Серебрянка, спасают горе подругу от нелепых ситуаций. Они помогают Динь — динь, разобраться во всем. И у фей новое приключение, все они оказались далеко от долины, на большом острове, раньше там никому из фей не доводилось быть.

Страна: США, DisneyToon Studios, Prana Studios
Продолжительность: 01:18:05
Озвучивание: Дублированное - чистый звук
Файл
Качество: BDRip 1080p
Формат: MKV
Видео: MPEG4/AVC, 1920x1080 (16:9), 6345 Кбит/с, 23.976 кадра/сек
Аудио 1: Русский (AC3, 2 канала, 384 Кбит/с)
Аудио 2: Английский (АС3, 6 каналов, 448 Кбит/с)
Субтитры: Английские (Full, SDH)
Навигация по главам: Есть
Видеоряд: PHD
Общее
Уникальный идентификатор : 224442971249096219823788979737833599678 (0xA8DA24D78558FD76A8C461D78DE972BE)
Полное имя : The Pirate Fairy. (2014) BDRip 1080p.mkv
Формат : Matroska
Версия формата : Version 2
Размер файла : 3,99 Гбайт
Продолжительность : 1 ч. 18 м.
Общий поток : 7323 Кбит/сек
Дата кодирования : UTC 2014-04-12 15:21:11
Программа кодирования : mkvmerge v5.8.0 ('No Sleep / Pillow') built on Sep 2 2012 15:37:04
Библиотека кодирования : libebml v1.2.3 + libmatroska v1.3.0
Видео
Идентификатор : 1
Формат : AVC
Формат/Информация : Advanced Video Codec
Профиль формата : High@L4.1
Параметр CABAC формата : Да
Параметр ReFrames формата : 4 кадра
Идентификатор кодека : V_MPEG4/ISO/AVC
Продолжительность : 1 ч. 18 м.
Битрейт : 6345 Кбит/сек
Ширина : 1920 пикселей
Высота : 1080 пикселей
Соотношение сторон : 16:9
Режим частоты кадров : Постоянный
Частота кадров : 23,976 кадра/сек
Цветовое пространство : YUV
Субдискретизация насыщенности : 4:2:0
Битовая глубина : 8 бит
Тип развёртки : Прогрессивная
Бит/(Пиксели*Кадры) : 0.128
Размер потока : 3,46 Гбайт (87%)
Язык : English
Default : Да
Forced : Нет
Аудио #1
Идентификатор : 2
Формат : AC-3
Формат/Информация : Audio Coding 3
Расширение режима : CM (complete main)
Параметр Endianness формата : Big
Идентификатор кодека : A_AC3
Продолжительность : 1 ч. 18 м.
Вид битрейта : Постоянный
Битрейт : 384 Кбит/сек
Каналы : 2 канала
Расположение каналов : Front: L R
Частота : 48,0 КГц
Битовая глубина : 16 бит
Метод сжатия : С потерями
Размер потока : 214 Мбайт (5%)
Заголовок : Dub | Line
Язык : Russian
Default : Да
Forced : Нет
Аудио #2
Идентификатор : 3
Формат : AC-3
Формат/Информация : Audio Coding 3
Расширение режима : CM (complete main)
Параметр Endianness формата : Big
Идентификатор кодека : A_AC3
Продолжительность : 1 ч. 18 м.
Вид битрейта : Постоянный
Битрейт : 448 Кбит/сек
Каналы : 6 каналов
Расположение каналов : Front: L C R, Side: L R, LFE
Частота : 48,0 КГц
Битовая глубина : 16 бит
Метод сжатия : С потерями
Размер потока : 250 Мбайт (6%)
Заголовок : Eng
Язык : English
Default : Нет
Forced : Нет
Текст #1
Идентификатор : 4
Формат : UTF-8
Идентификатор кодека : S_TEXT/UTF8
Идентификатор кодека/Информация : UTF-8 Plain Text
Заголовок : Full
Язык : English
Default : Нет
Forced : Нет
Текст #2
Идентификатор : 5
Формат : UTF-8
Идентификатор кодека : S_TEXT/UTF8
Идентификатор кодека/Информация : UTF-8 Plain Text
Заголовок : SDH
Язык : English
Default : Нет
Forced : Нет
Меню
00:00:00.000 : en:00:00:00.000
00:04:05.996 : en:00:04:05.996
00:07:36.665 : en:00:07:36.665
00:14:32.747 : en:00:14:32.747
00:20:17.925 : en:00:20:17.925
00:28:10.814 : en:00:28:10.814
00:33:03.607 : en:00:33:03.607
00:40:12.201 : en:00:40:12.201
00:45:53.334 : en:00:45:53.334
00:53:51.520 : en:00:53:51.520
01:03:41.609 : en:01:03:41.609
01:08:40.742 : en:01:08:40.742


Релиз от:



   Похожие торренты   Торрент   Размер 
В этой теме нет новых непрочитанных сообщений. Феи: Загадка пиратского острова / The Pirate Fairy (2014) Blu-Ray Remux 1080p | D | Чистый звук

324 | 173

21.89 ГБ

В этой теме нет новых непрочитанных сообщений. Феи: Загадка пиратского острова / The Pirate Fairy (2014) BDRip 720p | Чистый звук

1120 | 116

2.85 ГБ

В этой теме нет новых непрочитанных сообщений. Феи: Загадка пиратского острова / The Pirate Fairy (2014) BDRip-AVC от ExKinoRay | Чистый звук

990 | 110

2.14 ГБ

В этой теме нет новых непрочитанных сообщений. Феи: Загадка пиратского острова / The Pirate Fairy (2014) BDRip 720p от Leonardo and Scarabey | Чистый звук

1366 | 313

2.84 ГБ

В этой теме нет новых непрочитанных сообщений. Феи: Загадка пиратского острова / The Pirate Fairy (2014) HDRip | Чистый звук

7346 | 563

1.37 ГБ

В этой теме нет новых непрочитанных сообщений. Феи: Загадка пиратского острова / The Pirate Fairy (2014) HDRip от Deadmauvlad | Чистый звук

1775 | 280

747.31 МБ

В этой теме нет новых непрочитанных сообщений. Феи: Загадка пиратского острова / The Pirate Fairy (2014) BDRemux от ExKinoRay | D | Чистый звук

84 | 27

20.16 ГБ




Вы не можете начинать темы
Вы не можете отвечать на сообщения
Вы не можете редактировать свои сообщения
Вы не можете удалять свои сообщения
Вы не можете добавлять вложения

Перейти:  
Для Мосгорсуда, Роскомнадзора и рекламодателей: mosgorsud-torrent[собачка]yandex.ru
 Вход
ppkBB3cker v.2 © 2008-2014 @ PPK
[ Time : 0.052s | 15 Queries | GZIP : Off ]

Торрент трекер RUTOR.IN, Не можете зайти на rutor.org? Какой новый адрес рутор? Какое зеркало рутор? Не работает rutor.org и зеркала? Тогда наш торрент специально для вас. Rutor.in неофициальное зеркало rutor. В случае если у Вас заблокирован rutor или вдруг Вы не можете на него зайти, то Вы без труда сможете скачать бесплатно и без рекламы последние новинки кино, игр, сериалов и прочего у нас, на Rutor.in. Не нужно использовать прокси, чтобы зайти на рутор, достаточно воспользоваться нашим ресурсом. Все новые фильмы, игры, сериалы, книги и музыка за 2013 и 2014 годы через торрент бесплатно. Скачивайте фильмы в хорошем качестве, игры для пк, xbox, playstation без регистрации. У нас вы найдете новые Зарубежные сериалы и Русские сериалы 2013, 2014, 2015 годов. Оставайтесь с нами, качайте любимые фильмы, игры, сериалы, книги и музыку.