img image001 image001 image001 image001 image001 image001 image001 image001 image001 image001 image001 image001 image001 image001 image001

Planets Sun Sun Sun
Статистика раздачи
Автор: Nickolas3434 | Размер: 4.11 ГБ | Добавлен: 16 апр 2014
Раздают: 326    Качают: 62
Скачать торрент
Скачать торрент
Описание торрента

СообщениеДобавлено: 16 апр 2014 

Информация о фильме
Название: Спирит: Душа прерий
Оригинальное название: Spirit: Stallion of the Cimarron
Год выпуска: 2002
Жанр: Приключения, семейный, полнометражный
Режиссер: Келли Эсбёри, Лорна Кук
В ролях: Мэтт Дэймон, Джеймс Кромуэлл, Дэниэл Студи, Чоппер Бернет, Джеф ЛеБо, Джон Рубано, Ричард МакГонагл, Мэтт Левин, Адам Пол, Роберт Кайт, Чарльз Нэпьер, Мередит Уэллс, Занн МаКларнон, Майкл Хорс, Дональд Фуллилов

Описание: Этот приключенческий мультфильм рассказывает историю дикого жеребца мустанга Спирита, путешествующего по территории всей Америки. Храбрый Спирит заводит дружбу с молодым индейцем Лакотой и находит любовь с красивой кобылой по имени Дождь. Все счастливы до тех пор, пока на жеребца не положили глаз люди, которые хотят сделать из него военную лошадь…


Страна: США
Студия: Dream Works Pictures
Продолжительность: 01:23:28
Перевод: Дублированный, профессиональный многоголосый

Файл
Качество: BDRip 1080p
Видео: MPEG-4 AVC, 5510 Кбит/с, 1920x820, 23.976 кадр/с
Аудио #1: Русский (AC3, 6 ch, 448 Кбит/с) / Дублированный
Аудио #2: Русский (AC3, 6 ch, 448 Кбит/с) / Профессиональный многоголосый
Аудио #3: Английский (AC3, 6 ch, 640 Кбит/с)
Субтитры: Русские, английские

Семпл



x264 [info]: frame I:1345 Avg QP:12.36 size:245446
x264 [info]: frame P:38271 Avg QP:16.47 size: 50494
x264 [info]: frame B:80477 Avg QP:17.37 size: 14715
*****************************************************************************************************
Общее
Уникальный идентификатор : 172568966591040795534139908713041197567 (0x81D392F32B4417E389AF7F0F7B4579FF)
Полное имя : D:Mои раздачиSpirit.dusha.preryi.2002.BDRip.1080p-MediaClub.mkv
Формат : Matroska
Версия формата : Version 4 / Version 2
Размер файла : 4,11 Гбайт
Продолжительность : 1 ч. 23 м.
Общий поток : 7044 Кбит/сек
Название фильма : -=MediaClub-kaspr=-
Дата кодирования : UTC 2014-04-15 07:23:59
Программа кодирования : mkvmerge v6.1.0 ('Old Devil') built on Mar 4 2013 09:10:42
Библиотека кодирования : libebml v1.3.0 + libmatroska v1.4.0

Видео
Идентификатор : 1
Формат : AVC
Формат/Информация : Advanced Video Codec
Профиль формата : High@L4.1
Параметр CABAC формата : Да
Параметр ReFrames формата : 5 кадров
Идентификатор кодека : V_MPEG4/ISO/AVC
Продолжительность : 1 ч. 23 м.
Битрейт : 5510 Кбит/сек
Ширина : 1920 пикселей
Высота : 820 пикселей
Соотношение сторон : 2,35:1
Режим частоты кадров : Постоянный
Частота кадров : 23,976 кадра/сек
Цветовое пространство : YUV
Субдискретизация насыщенности : 4:2:0
Битовая глубина : 8 бит
Тип развёртки : Прогрессивная
Бит/(Пиксели*Кадры) : 0.146
Размер потока : 3,13 Гбайт (76%)
Заголовок : -=MediaClub-kaspr=-
Библиотека кодирования : x264 core 142 r2409+42 04be48a tMod [8-bit@4:2:0 X86_64]
Настройки программы : cabac=1 / ref=5 / deblock=1:-3:-3 / analyse=0x3:0x113 / me=umh / subme=11 / psy=1 / fade_compensate=0.00 / psy_rd=1.00:0.20 / mixed_ref=1 / me_range=32 / chroma_me=1 / trellis=2 / 8x8dct=1 / cqm=0 / deadzone=21,11 / fast_pskip=0 / chroma_qp_offset=-3 / threads=12 / lookahead_threads=2 / sliced_threads=0 / nr=0 / decimate=0 / interlaced=0 / bluray_compat=0 / constrained_intra=0 / fgo=0 / bframes=8 / b_pyramid=2 / b_adapt=2 / b_bias=0 / direct=3 / weightb=1 / open_gop=0 / weightp=2 / keyint=240 / keyint_min=23 / scenecut=40 / intra_refresh=0 / rc=2pass / mbtree=0 / bitrate=5510 / ratetol=1.0 / qcomp=0.60 / qpmin=0:0:0 / qpmax=69:69:69 / qpstep=4 / cplxblur=20.0 / qblur=0.5 / ip_ratio=1.40 / pb_ratio=1.30 / aq=2:0.60 / aq-sensitivity=10.00 / aq-factor=1.00:1.00:1.00 / aq2=0 / aq3=0
Default : Да
Forced : Да

Аудио #1
Идентификатор : 2
Формат : AC-3
Формат/Информация : Audio Coding 3
Расширение режима : CM (complete main)
Параметр Endianness формата : Big
Идентификатор кодека : A_AC3
Продолжительность : 1 ч. 23 м.
Вид битрейта : Постоянный
Битрейт : 448 Кбит/сек
Каналы : 6 каналов
Расположение каналов : Front: L C R, Side: L R, LFE
Частота : 48,0 КГц
Битовая глубина : 16 бит
Метод сжатия : С потерями
Размер потока : 268 Мбайт (6%)
Заголовок : Dub
Язык : Russian
Default : Да
Forced : Да

Аудио #2
Идентификатор : 3
Формат : AC-3
Формат/Информация : Audio Coding 3
Расширение режима : CM (complete main)
Параметр Endianness формата : Big
Идентификатор кодека : A_AC3
Продолжительность : 1 ч. 23 м.
Вид битрейта : Постоянный
Битрейт : 448 Кбит/сек
Каналы : 6 каналов
Расположение каналов : Front: L C R, Side: L R, LFE
Частота : 48,0 КГц
Битовая глубина : 16 бит
Метод сжатия : С потерями
Размер потока : 268 Мбайт (6%)
Заголовок : MVO
Язык : Russian
Default : Нет
Forced : Нет

Аудио #3
Идентификатор : 4
Формат : AC-3
Формат/Информация : Audio Coding 3
Расширение режима : CM (complete main)
Параметр Endianness формата : Big
Идентификатор кодека : A_AC3
Продолжительность : 1 ч. 23 м.
Вид битрейта : Постоянный
Битрейт : 640 Кбит/сек
Каналы : 6 каналов
Расположение каналов : Front: L C R, Side: L R, LFE
Частота : 48,0 КГц
Битовая глубина : 16 бит
Метод сжатия : С потерями
Размер потока : 382 Мбайт (9%)
Язык : English
Default : Нет
Forced : Нет

Текст #1
Идентификатор : 5
Формат : UTF-8
Идентификатор кодека : S_TEXT/UTF8
Идентификатор кодека/Информация : UTF-8 Plain Text
Язык : Russian
Default : Нет
Forced : Нет

Текст #2
Идентификатор : 6
Формат : UTF-8
Идентификатор кодека : S_TEXT/UTF8
Идентификатор кодека/Информация : UTF-8 Plain Text
Язык : English
Default : Нет
Forced : Нет

Меню
00:00:00.000 : en:Chapter 01
00:07:32.410 : en:Chapter 02
00:11:29.855 : en:Chapter 03
00:18:15.010 : en:Chapter 04
00:20:40.280 : en:Chapter 05
00:23:22.359 : en:Chapter 06
00:25:35.492 : en:Chapter 07
00:30:11.184 : en:Chapter 08
00:35:24.831 : en:Chapter 09
00:38:47.950 : en:Chapter 10
00:42:06.148 : en:Chapter 11
00:43:52.546 : en:Chapter 12
00:48:10.637 : en:Chapter 13
00:53:29.289 : en:Chapter 14
00:57:18.810 : en:Chapter 15
01:00:49.437 : en:Chapter 16
01:04:26.863 : en:Chapter 17
01:11:14.561 : en:Chapter 18
01:14:07.234 : en:Chapter 19
01:16:12.109 : en:Chapter 20


Релиз: |



   Похожие торренты   Торрент   Размер 
В этой теме нет новых непрочитанных сообщений. Спирит: Душа прерий / Spirit: Stallion of the Cimarron (2002) BDRemux 1080p от MediaClub | D, P

21 | 19

24.43 ГБ

В этой теме нет новых непрочитанных сообщений. Спирит: Душа прерий / Spirit: Stallion of the Cimarron (2002) BDRip-AVC от MediaClub | D, P

248 | 44

1.95 ГБ

В этой теме нет новых непрочитанных сообщений. Спирит: Душа прерий / Spirit: Stallion of the Cimarron (2002) BDrip 1080p | P

82 | 14

21.07 ГБ

В этой теме нет новых непрочитанных сообщений. Спирит: Душа прерий / Spirit: Stallion of the Cimarron 2002 1080p BDRip-AVC | 60 fps | D, P

138 | 23

8.34 ГБ

В этой теме нет новых непрочитанных сообщений. Спирит: Душа прерий / Spirit: Stallion of the Cimarron (2002) BDRip 720p

1452 | 51

2.35 ГБ

В этой теме нет новых непрочитанных сообщений. Спирит: Душа прерий / Spirit: Stallion of the Cimarron (2002) BDRip-AVC от New-Team | Лицензия

102 | 8

1.46 ГБ

В этой теме нет новых непрочитанных сообщений. Спирит: Душа прерий / Spirit: Stallion of the Cimarron (2002) BDRip-AVC от New-Team | Лицензия

41 | 4

746.16 МБ




Вы не можете начинать темы
Вы не можете отвечать на сообщения
Вы не можете редактировать свои сообщения
Вы не можете удалять свои сообщения
Вы не можете добавлять вложения

Перейти:  
Для Мосгорсуда, Роскомнадзора и рекламодателей: mosgorsud-torrent[собачка]yandex.ru
 Вход
ppkBB3cker v.2 © 2008-2014 @ PPK
[ Time : 0.035s | 17 Queries | GZIP : Off ]

Торрент трекер RUTOR.IN, Не можете зайти на rutor.org? Какой новый адрес рутор? Какое зеркало рутор? Не работает rutor.org и зеркала? Тогда наш торрент специально для вас. Rutor.in неофициальное зеркало rutor. В случае если у Вас заблокирован rutor или вдруг Вы не можете на него зайти, то Вы без труда сможете скачать бесплатно и без рекламы последние новинки кино, игр, сериалов и прочего у нас, на Rutor.in. Не нужно использовать прокси, чтобы зайти на рутор, достаточно воспользоваться нашим ресурсом. Все новые фильмы, игры, сериалы, книги и музыка за 2013 и 2014 годы через торрент бесплатно. Скачивайте фильмы в хорошем качестве, игры для пк, xbox, playstation без регистрации. У нас вы найдете новые Зарубежные сериалы и Русские сериалы 2013, 2014, 2015 годов. Оставайтесь с нами, качайте любимые фильмы, игры, сериалы, книги и музыку.