img image001 image001 image001 image001 image001 image001 image001 image001 image001 image001 image001 image001 image001 image001 image001

Planets Sun Sun Sun
Статистика раздачи
Автор: Nickolas3434 | Размер: 1.95 ГБ | Добавлен: 17 апр 2014
Раздают: 248    Качают: 44
Скачать торрент
Скачать торрент
Описание торрента

СообщениеДобавлено: 17 апр 2014 

Информация о фильме
Название: Спирит: Душа прерий
Оригинальное название: Spirit: Stallion of the Cimarron
Год выхода: 2002
Жанр: Приключения, семейный
Режиссер: Келли Эсбёри, Лорна Кук
В ролях: Мэтт Дэймон, Джеймс Кромуэлл, Дэниэл Студи, Чоппер Бернет, Джеф ЛеБо, Джон Рубано, Ричард МакГонагл, Мэтт Левин, Адам Пол, Роберт Кайт, Чарльз Нэпьер, Мередит Уэллс, Занн МаКларнон, Майкл Хорс, Дональд Фуллилов

О фильме:
Этот приключенческий мультфильм рассказывает историю дикого жеребца мустанга Спирита, путешествующего по территории всей Америки. Храбрый Спирит заводит дружбу с молодым индейцем Лакотой и находит любовь с красивой кобылой по имени Дождь. Все счастливы до тех пор, пока на жеребца не положили глаз люди, которые хотят сделать из него военную лошадь…


Страна: США / Dream Works Pictures
Продолжительность: 01:23:28
Перевод: Дублированный + профессиональный многоголосый + оригинал

Файл
Качество: BDRip-AVC
Видео: MPEG-4 AVC, 2000 Кбит/с, 1024x438, 23.976 кадр/с
Аудио #1: Русский (AC3, 6 ch, 448 Кбит/с) / Дублированный
Аудио #2: Русский (AC3, 6 ch, 448 Кбит/с) / Профессиональный многоголосый
Аудио #3: Английский (AC3, 6 ch, 448 Кбит/с)
Субтитры: Русские, английские
Семпл

За исходник, большое спасибо kaspr

x264 [info]: frame I:1341 Avg QP:11.10 size:104338
x264 [info]: frame P:33641 Avg QP:17.14 size: 18577
x264 [info]: frame B:85111 Avg QP:19.91 size: 5729
x264 [info]: consecutive B-frames: 4.2% 9.4% 10.9% 47.0% 13.2% 8.9% 1.6% 1.2% 1.0% 1.1% 1.5%
x264 [info]: mb I I16..4: 17.5% 41.1% 41.4%
x264 [info]: mb P I16..4: 1.1% 6.2% 3.5% P16..4: 23.5% 23.9% 13.1% 0.0% 0.0% skip:28.8%
x264 [info]: mb B I16..4: 0.1% 1.0% 0.6% B16..8: 22.6% 11.4% 3.2% direct: 2.4% skip:58.7% L0:43.2% L1:44.9% BI:11.9%
x264 [info]: 8x8 transform intra:54.9% inter:33.8%
x264 [info]: direct mvs spatial:90.1% temporal:9.9%
x264 [info]: coded y,uvDC,uvAC intra: 82.6% 83.6% 66.9% inter: 12.8% 13.3% 8.2%
x264 [info]: i16 v,h,dc,p: 21% 16% 22% 40%
x264 [info]: i8 v,h,dc,ddl,ddr,vr,hd,vl,hu: 12% 16% 11% 7% 9% 8% 12% 9% 16%
x264 [info]: i4 v,h,dc,ddl,ddr,vr,hd,vl,hu: 15% 12% 9% 9% 12% 10% 12% 9% 13%
x264 [info]: i8c dc,h,v,p: 39% 33% 15% 12%
x264 [info]: Weighted P-Frames: Y:3.4% UV:2.5%
x264 [info]: ref P L0: 54.8% 5.5% 14.7% 7.2% 4.4% 4.4% 3.0% 2.1% 1.6% 1.9% 0.4% 0.0%
x264 [info]: ref B L0: 75.6% 10.2% 5.6% 2.4% 2.1% 1.6% 1.3% 0.7% 0.4%
x264 [info]: ref B L1: 92.8% 7.2%
x264 [info]: kb/s:2000

Format : Matroska
Format version : Version 4 / Version 2
File size : 1.95 GiB
Duration : 1h 23mn
Overall bit rate : 3 347 Kbps
Movie name : -=MediaClub - Odessit=-
Encoded date : UTC 2014-04-16 05:28:00
Writing application : mkvmerge v6.8.0 ('Theme for Great Cities') 64bit built on Mar 2 2014 21:34:26
Writing library : libebml v1.3.0 + libmatroska v1.4.1

Video
ID : 1
Format : AVC
Format/Info : Advanced Video Codec
Format profile : High@L4.1
Format settings, CABAC : Yes
Format settings, ReFrames : 10 frames
Codec ID : V_MPEG4/ISO/AVC
Duration : 1h 23mn
Bit rate : 2 000 Kbps
Width : 1 024 pixels
Height : 438 pixels
Display aspect ratio : 2.35:1
Frame rate : 23.976 fps
Color space : YUV
Chroma subsampling : 4:2:0
Bit depth : 8 bits
Scan type : Progressive
Bits/(Pixel*Frame) : 0.186
Stream size : 1.13 GiB (58%)
Writing library : x264 core 142 r2409+42 04be48a tMod [8-bit@all X86_64]
Encoding settings : cabac=1 / ref=10 / deblock=1:-2:-2 / analyse=0x3:0x113 / me=umh / subme=11 / psy=1 / fade_compensate=0.00 / psy_rd=1.03:0.20 / mixed_ref=1 / me_range=48 / chroma_me=1 / trellis=2 / 8x8dct=1 / cqm=0 / deadzone=21,11 / fast_pskip=0 / chroma_qp_offset=-3 / threads=6 / lookahead_threads=1 / sliced_threads=0 / nr=0 / decimate=0 / interlaced=0 / bluray_compat=0 / constrained_intra=0 / fgo=0 / bframes=10 / b_pyramid=2 / b_adapt=2 / b_bias=0 / direct=3 / weightb=1 / open_gop=0 / weightp=2 / keyint=240 / keyint_min=23 / scenecut=40 / intra_refresh=0 / rc_lookahead=40 / rc=2pass / mbtree=1 / bitrate=2000 / ratetol=1.0 / qcomp=0.60 / qpmin=0:0:0 / qpmax=69:69:69 / qpstep=4 / cplxblur=20.0 / qblur=0.5 / ip_ratio=1.40 / aq=2:0.90 / aq-sensitivity=10.00 / aq-factor=1.00:1.00:1.00 / aq2=0 / aq3=0
Language : English

Audio #1
ID : 2
Format : AC-3
Format/Info : Audio Coding 3
Mode extension : CM (complete main)
Codec ID : A_AC3
Duration : 1h 23mn
Bit rate mode : Constant
Bit rate : 448 Kbps
Channel(s) : 6 channels
Channel positions : Front: L C R, Side: L R, LFE
Sampling rate : 48.0 KHz
Bit depth : 16 bits
Compression mode : Lossy
Stream size : 268 MiB (13%)
Title : Дублированный
Language : Russian

Audio #2
ID : 3
Format : AC-3
Format/Info : Audio Coding 3
Mode extension : CM (complete main)
Codec ID : A_AC3
Duration : 1h 23mn
Bit rate mode : Constant
Bit rate : 448 Kbps
Channel(s) : 6 channels
Channel positions : Front: L C R, Side: L R, LFE
Sampling rate : 48.0 KHz
Bit depth : 16 bits
Compression mode : Lossy
Stream size : 268 MiB (13%)
Title : Профессиональный многоголосый
Language : Russian

Audio #3
ID : 4
Format : AC-3
Format/Info : Audio Coding 3
Mode extension : CM (complete main)
Codec ID : A_AC3
Duration : 1h 23mn
Bit rate mode : Constant
Bit rate : 448 Kbps
Channel(s) : 6 channels
Channel positions : Front: L C R, Side: L R, LFE
Sampling rate : 48.0 KHz
Bit depth : 16 bits
Compression mode : Lossy
Stream size : 268 MiB (13%)
Language : English

Text #1
ID : 5
Format : UTF-8
Codec ID : S_TEXT/UTF8
Codec ID/Info : UTF-8 Plain Text
Title : Full
Language : Russian

Text #2
ID : 6
Format : UTF-8
Codec ID : S_TEXT/UTF8
Codec ID/Info : UTF-8 Plain Text
Title : SDH
Language : English

Menu
00:00:00.000 : en:Young Spirit
00:07:32.410 : en:Leader Of His Herd
00:11:29.855 : en:The Journey begins
00:18:15.010 : en:Spirit Meets Man
00:20:40.280 : en:A Strange New Place
00:23:22.359 : en:You Can't Break Me
00:25:35.492 : en:This One Seemed Different
00:30:11.184 : en:The Great Escape
00:35:24.831 : en:Indian Camp
00:38:47.950 : en:Rain's World
00:42:06.148 : en:Torn Two Ways
00:43:52.546 : en:"Go Home"
00:48:10.637 : en:The Calvalry Attacks
00:53:29.289 : en:Remember Who You Are
00:57:18.810 : en:Master Plan
01:00:49.437 : en:Breaking Free
01:04:26.863 : en:Leap of Faith
01:11:14.561 : en:Farewell My Friend
01:14:07.234 : en:The Return
01:16:12.109 : en:End Credits



Релиз от: |



   Похожие торренты   Торрент   Размер 
В этой теме нет новых непрочитанных сообщений. Спирит: Душа прерий / Spirit: Stallion of the Cimarron (2002) BDRip 1080p от MediaClub | D, P

326 | 62

4.11 ГБ

В этой теме нет новых непрочитанных сообщений. Спирит: Душа прерий / Spirit: Stallion of the Cimarron (2002) BDRemux 1080p от MediaClub | D, P

21 | 19

24.43 ГБ

В этой теме нет новых непрочитанных сообщений. Спирит: Душа прерий / Spirit: Stallion of the Cimarron (2002) BDRip 720p

1452 | 51

2.35 ГБ

В этой теме нет новых непрочитанных сообщений. Спирит: Душа прерий / Spirit: Stallion of the Cimarron (2002) BDrip 1080p | P

82 | 14

21.07 ГБ

В этой теме нет новых непрочитанных сообщений. Спирит: Душа прерий / Spirit: Stallion of the Cimarron 2002 1080p BDRip-AVC | 60 fps | D, P

138 | 23

8.34 ГБ

В этой теме нет новых непрочитанных сообщений. Спирит: Душа прерий / Spirit: Stallion of the Cimarron (2002) BDRip 720p от HDCLUB | D, P

106 | 11

3.74 ГБ

В этой теме нет новых непрочитанных сообщений. Спирит: Душа прерий / Spirit: Stallion of the Cimarron (2002) BDRip-AVC от New-Team | Лицензия

41 | 4

746.16 МБ




Вы не можете начинать темы
Вы не можете отвечать на сообщения
Вы не можете редактировать свои сообщения
Вы не можете удалять свои сообщения
Вы не можете добавлять вложения

Перейти:  
Для Мосгорсуда, Роскомнадзора и рекламодателей: mosgorsud-torrent[собачка]yandex.ru
 Вход
ppkBB3cker v.2 © 2008-2014 @ PPK
[ Time : 0.512s | 16 Queries | GZIP : Off ]

Торрент трекер RUTOR.IN, Не можете зайти на rutor.org? Какой новый адрес рутор? Какое зеркало рутор? Не работает rutor.org и зеркала? Тогда наш торрент специально для вас. Rutor.in неофициальное зеркало rutor. В случае если у Вас заблокирован rutor или вдруг Вы не можете на него зайти, то Вы без труда сможете скачать бесплатно и без рекламы последние новинки кино, игр, сериалов и прочего у нас, на Rutor.in. Не нужно использовать прокси, чтобы зайти на рутор, достаточно воспользоваться нашим ресурсом. Все новые фильмы, игры, сериалы, книги и музыка за 2013 и 2014 годы через торрент бесплатно. Скачивайте фильмы в хорошем качестве, игры для пк, xbox, playstation без регистрации. У нас вы найдете новые Зарубежные сериалы и Русские сериалы 2013, 2014, 2015 годов. Оставайтесь с нами, качайте любимые фильмы, игры, сериалы, книги и музыку.
cron