img image001 image001 image001 image001 image001 image001 image001 image001 image001 image001 image001 image001 image001 image001 image001

Planets Sun Sun Sun
Статистика раздачи
Автор: Nickolas3434 | Размер: 1.32 ГБ | Добавлен: 20 апр 2014
Раздают: 29    Качают: 3
Скачать торрент
Скачать торрент
Описание торрента

СообщениеДобавлено: 20 апр 2014 


Страна: США, Канада / Hasbro Studios, Nelvana Limited

Жанр: мультфильм
Год выпуска: 2010 - 2012
Продолжительность: ~00:10:00 / серия

Перевод: Профессиональный (дублированный)
Cубтитры: нет
Оригинальная аудиодорожка: нет

Режиссер: Брайан Харрис / Brian Harris, Адриан Тэтчер / Adrian Thatcher, Дональд Ким / Donald Kim

В главных ролях: Стэйси ДеПасс, Фэб Филиппо, Даррен Фрост, Лорен Холли, Джоэнн Ванникола, Дэйл Йим, Лион Смит, Гэбриел Джиаммария, Gabriel Giuliani,
Блэр Уильямс...

Роли дублировали: Елена Шульман, Антон Савенков, Татьяна Весёлкина, Диомид Виноградов, Станислав Стрелков

Описание: Грузовичок Чак и его товарищи одинаково любят работать и веселиться. Они с лёгкостью решают любые проблемы, потому что всегда помогают друг другу. Кроме того, Чак обожает фантазировать, поэтому друзьям никогда не приходится скучать.



Качество: DVDRip / 1 x DVD9 R5
Формат: AVI

Видео: 720x400 (16:9), 25.000 fps, XviD ~ 1800 kbps avg, 0.250 bit/pixel
Аудио: 48 kHz, Dolby AC3, 2 ch, 192 kbps, русский

Раздача от:


Выпуск 1 (2010)
01. Тяжелая ноша
02. Тренировка
03. Тайное становится явным
04. Маленький большой Чак
05. Гонка мечты
06. Летающие грузовички
07. Крепость на день
08. Впервые на арене
09. Врач для грузовика

Внимание! Раздача ведётся путём добавления новых серий; при каждом добавлении создаётся новый торрент-файл. Чтобы начать докачку новой серии, пользователям необходимо сделать следующее:
(1) остановить скачивание;
(2) удалить старый торрент-файл у себя из клиента (старые серии удалять не надо);
(3) скачать новый торрент-файл и запустить его у себя в клиенте вместо старого, при этом указать клиенту путь в старую папку куда и должно происходить скачивание новых серий.
Ваш клиент при этом должен произвести хеширование (проверку) старой папки (если он не производит проверку сам – помогите ему сделать это), и будет докачивать только те серии которых у вас ещё нет. Старые серии при этом не удаляются, а продолжают раздаваться!
Если вы уже удалили старые серии, то предотвратить повторную закачку старых серий можно, отжав галочку в соответствующих местах при запуске нового торрент-файла. Желательно старые серии не удалять как можно дольше, чтобы релизёр не столько продолжал раздавать старые серии, а смог сконцентрироваться на новых.

Общее
Полное имя : Priklyucheniya.Chaka.i.ego.druzey.2012.D.DVDRip_[New-Team]_by_avprohVypusk11.avi
Формат : AVI
Формат/Информация : Audio Video Interleave
Размер файла : 148 Мбайт
Продолжительность : 10 м.
Общий поток : 2001 Кбит/сек
Программа кодирования : VirtualDubModRus 1.5.10.2 (build 2542/release)
Библиотека кодирования : VirtualDubMod build 2542/release

Видео
Идентификатор : 0
Формат : MPEG-4 Visual
Профиль формата : Advanced Simple@L5
Параметр BVOP формата : 1
Параметр QPel формата : Нет
Параметр GMC формата : Без точки перехода
Параметр матрицы формата : Выборочная
Идентификатор кодека : XVID
Идентификатор кодека/Подсказка : XviD
Продолжительность : 10 м.
Битрейт : 1799 Кбит/сек
Ширина : 720 пикселей
Высота : 400 пикселей
Соотношение сторон : 16:9
Частота кадров : 25,000 кадров/сек
Цветовое пространство : YUV
Субдискретизация насыщенности : 4:2:0
Битовая глубина : 8 бит
Тип развёртки : Прогрессивная
Метод сжатия : С потерями
Бит/(Пиксели*Кадры) : 0.250
Размер потока : 133 Мбайт (90%)
Библиотека кодирования : XviD 73

Аудио
Идентификатор : 1
Формат : AC-3
Формат/Информация : Audio Coding 3
Расширение режима : CM (complete main)
Параметр Endianness формата : Big
Идентификатор кодека : 2000
Продолжительность : 10 м.
Вид битрейта : Постоянный
Битрейт : 192 Кбит/сек
Каналы : 2 канала
Расположение каналов : Front: L R
Частота : 48,0 КГц
Битовая глубина : 16 бит
Метод сжатия : С потерями
Размер потока : 14,2 Мбайт (10%)
Выравнивание : Разделение по промежуткам
Продолжительность промежутка : 40 мс. (1,00 видеокадр)
Время предзагрузки промежутка : 500 мс.





   Похожие торренты   Торрент   Размер 
В этой теме нет новых непрочитанных сообщений. Приключения Чака и его друзей / The Adventures of Chuck & Friends [01-09 из ?] (2010) DVDRip-AVC от New-Team | лицензия

47 | 13

1.32 ГБ

В этой теме нет новых непрочитанных сообщений. Приключения Чака и его друзей / The Adventures of Chuck & Friends [S01x01-52 из 52] (2010-2011) DVDRip от New-Team | лицензия

167 | 30

7.67 ГБ

В этой теме нет новых непрочитанных сообщений. Приключения Чака и его друзей / The Adventures of Chuck & Friends [S01x01-52 из 52] (2010-2011) DVDRip-AVC от New-Team | лицензия

497 | 131

7.68 ГБ

В этой теме нет новых непрочитанных сообщений. Приключения Чака и его друзей / The Adventures of Chuck & Friends [01-09 из ?] (2010) DVD9 R5 от New-Team | лицензия

3 | 8

4.94 ГБ

В этой теме нет новых непрочитанных сообщений. Приключения Чака и его друзей / The Adventures of Chuck & Friends [S01x01-52 из 52] (2010-2011) 2xDVD5 + 4xDVD9 от New-Team

10 | 10

28.18 ГБ

В этой теме нет новых непрочитанных сообщений. Приключения Чака и его друзей / The Adventures of Chuck & Friends [01-07, 09-38] (2010-2012) DVB | D

20 | 6

14.43 ГБ

В этой теме нет новых непрочитанных сообщений. Приключения Чака и его друзей / The Adventures of Chuck & Friends [01-07, 09-37, 39 ] (2010-2012) SATRip | D

7 | 2

9.12 ГБ




Вы не можете начинать темы
Вы не можете отвечать на сообщения
Вы не можете редактировать свои сообщения
Вы не можете удалять свои сообщения
Вы не можете добавлять вложения

Перейти:  
Для Мосгорсуда, Роскомнадзора и рекламодателей: mosgorsud-torrent[собачка]yandex.ru
 Вход
ppkBB3cker v.2 © 2008-2014 @ PPK
[ Time : 0.149s | 15 Queries | GZIP : Off ]

Торрент трекер RUTOR.IN, Не можете зайти на rutor.org? Какой новый адрес рутор? Какое зеркало рутор? Не работает rutor.org и зеркала? Тогда наш торрент специально для вас. Rutor.in неофициальное зеркало rutor. В случае если у Вас заблокирован rutor или вдруг Вы не можете на него зайти, то Вы без труда сможете скачать бесплатно и без рекламы последние новинки кино, игр, сериалов и прочего у нас, на Rutor.in. Не нужно использовать прокси, чтобы зайти на рутор, достаточно воспользоваться нашим ресурсом. Все новые фильмы, игры, сериалы, книги и музыка за 2013 и 2014 годы через торрент бесплатно. Скачивайте фильмы в хорошем качестве, игры для пк, xbox, playstation без регистрации. У нас вы найдете новые Зарубежные сериалы и Русские сериалы 2013, 2014, 2015 годов. Оставайтесь с нами, качайте любимые фильмы, игры, сериалы, книги и музыку.