img image001 image001 image001 image001 image001 image001 image001 image001 image001 image001 image001 image001 image001 image001 image001

Planets Sun Sun Sun
Статистика раздачи
Автор: Nickolas3434 | Размер: 1.32 ГБ | Добавлен: 20 апр 2014
Раздают: 47    Качают: 13
Скачать торрент
Скачать торрент
Описание торрента

СообщениеДобавлено: 20 апр 2014 


Страна: США, Канада / Hasbro Studios, Nelvana Limited

Жанр: мультфильм
Год выпуска: 2010 - 2012
Продолжительность: ~00:10:00 / серия

Перевод: Профессиональный (дублированный)
Cубтитры: нет
Оригинальная аудиодорожка: нет

Режиссер: Брайан Харрис / Brian Harris, Адриан Тэтчер / Adrian Thatcher, Дональд Ким / Donald Kim

В главных ролях: Стэйси ДеПасс, Фэб Филиппо, Даррен Фрост, Лорен Холли, Джоэнн Ванникола, Дэйл Йим, Лион Смит, Гэбриел Джиаммария, Gabriel Giuliani,
Блэр Уильямс...

Роли дублировали: Елена Шульман, Антон Савенков, Татьяна Весёлкина, Диомид Виноградов, Станислав Стрелков

Описание: Грузовичок Чак и его товарищи одинаково любят работать и веселиться. Они с лёгкостью решают любые проблемы, потому что всегда помогают друг другу. Кроме того, Чак обожает фантазировать, поэтому друзьям никогда не приходится скучать.



Качество: DVDRip-AVC / 1 x DVD9 R5
Формат: MKV

Видео: 720x572@1024x572 (16:9), 25.000 fps, MPEG-4 AVC ~ 1807 kbps avg, 0.192 bit/pixel
Аудио: 48 kHz, Dolby AC3, 2 ch, 192 kbps, русский

Раздача от:


Выпуск 1 (2010)
01. Тяжелая ноша
02. Тренировка
03. Тайное становится явным
04. Маленький большой Чак
05. Гонка мечты
06. Летающие грузовички
07. Крепость на день
08. Впервые на арене
09. Врач для грузовика

Внимание! Раздача ведётся путём добавления новых серий; при каждом добавлении создаётся новый торрент-файл. Чтобы начать докачку новой серии, пользователям необходимо сделать следующее:
(1) остановить скачивание;
(2) удалить старый торрент-файл у себя из клиента (старые серии удалять не надо);
(3) скачать новый торрент-файл и запустить его у себя в клиенте вместо старого, при этом указать клиенту путь в старую папку куда и должно происходить скачивание новых серий.
Ваш клиент при этом должен произвести хеширование (проверку) старой папки (если он не производит проверку сам – помогите ему сделать это), и будет докачивать только те серии которых у вас ещё нет. Старые серии при этом не удаляются, а продолжают раздаваться!
Если вы уже удалили старые серии, то предотвратить повторную закачку старых серий можно, отжав галочку в соответствующих местах при запуске нового торрент-файла. Желательно старые серии не удалять как можно дольше, чтобы релизёр не столько продолжал раздавать старые серии, а смог сконцентрироваться на новых.

Общее
Полное имя : Priklyucheniya.Chaka.i.ego.druzey.2012.D.DVDRip-AVC_[New-Team]_by_avprohVypusk11.mkv
Формат : Matroska
Версия формата : Version 4 / Version 2
Размер файла : 148 Мбайт
Продолжительность : 10 м.
Общий поток : 2002 Кбит/сек
Дата кодирования : UTC 2014-04-19 13:35:23
Программа кодирования : mkvmerge v6.9.0 ('On Duende') 64bit built on Apr 18 2014 12:57:54
Библиотека кодирования : libebml v1.3.0 + libmatroska v1.4.1

Видео
Идентификатор : 1
Формат : AVC
Формат/Информация : Advanced Video Codec
Профиль формата : High@L4.1
Параметр CABAC формата : Да
Параметр ReFrames формата : 8 кадров
Идентификатор кодека : V_MPEG4/ISO/AVC
Продолжительность : 10 м.
Битрейт : 1807 Кбит/сек
Ширина : 720 пикселей
Высота : 572 пикселя
Соотношение сторон : 16:9
Режим частоты кадров : Постоянный
Частота кадров : 25,000 кадров/сек
Цветовое пространство : YUV
Субдискретизация насыщенности : 4:2:0
Битовая глубина : 8 бит
Тип развёртки : Прогрессивная
Бит/(Пиксели*Кадры) : 0.176
Размер потока : 131 Мбайт (88%)
Библиотека кодирования : x264 core 138 r2356 a1d3d17
Настройки программы : cabac=1 / ref=8 / deblock=1:-2:-1 / analyse=0x3:0x113 / me=umh / subme=10 / psy=1 / psy_rd=1.00:0.05 / mixed_ref=1 / me_range=32 / chroma_me=1 / trellis=2 / 8x8dct=1 / cqm=0 / deadzone=21,11 / fast_pskip=0 / chroma_qp_offset=-3 / threads=9 / lookahead_threads=1 / sliced_threads=0 / nr=0 / decimate=0 / interlaced=0 / bluray_compat=0 / constrained_intra=0 / bframes=8 / b_pyramid=2 / b_adapt=2 / b_bias=0 / direct=3 / weightb=1 / open_gop=0 / weightp=2 / keyint=250 / keyint_min=25 / scenecut=40 / intra_refresh=0 / rc=2pass / mbtree=0 / bitrate=1807 / ratetol=1.0 / qcomp=0.60 / qpmin=0 / qpmax=69 / qpstep=4 / cplxblur=20.0 / qblur=0.5 / ip_ratio=1.40 / pb_ratio=1.30 / aq=1:1.00
Язык : Russian
Default : Да
Forced : Нет

Аудио
Идентификатор : 2
Формат : AC-3
Формат/Информация : Audio Coding 3
Расширение режима : CM (complete main)
Параметр Endianness формата : Big
Идентификатор кодека : A_AC3
Продолжительность : 10 м.
Вид битрейта : Постоянный
Битрейт : 192 Кбит/сек
Каналы : 2 канала
Расположение каналов : Front: L R
Частота : 48,0 КГц
Битовая глубина : 16 бит
Метод сжатия : С потерями
Размер потока : 14,2 Мбайт (10%)
Язык : Russian
Default : Да
Forced : Нет





   Похожие торренты   Торрент   Размер 
В этой теме нет новых непрочитанных сообщений. Приключения Чака и его друзей / The Adventures of Chuck & Friends [01-09 из ?] (2010) DVDRip от New-Team | лицензия

29 | 3

1.32 ГБ

В этой теме нет новых непрочитанных сообщений. Приключения Чака и его друзей / The Adventures of Chuck & Friends [S01x01-52 из 52] (2010-2011) DVDRip от New-Team | лицензия

167 | 30

7.67 ГБ

В этой теме нет новых непрочитанных сообщений. Приключения Чака и его друзей / The Adventures of Chuck & Friends [S01x01-52 из 52] (2010-2011) DVDRip-AVC от New-Team | лицензия

502 | 127

7.68 ГБ

В этой теме нет новых непрочитанных сообщений. Приключения Чака и его друзей / The Adventures of Chuck & Friends [01-09 из ?] (2010) DVD9 R5 от New-Team | лицензия

3 | 8

4.94 ГБ

В этой теме нет новых непрочитанных сообщений. Приключения Чака и его друзей / The Adventures of Chuck & Friends [S01x01-52 из 52] (2010-2011) 2xDVD5 + 4xDVD9 от New-Team

10 | 10

28.18 ГБ

В этой теме нет новых непрочитанных сообщений. Приключения Чака и его друзей / The Adventures of Chuck & Friends [01-07, 09-38] (2010-2012) DVB | D

20 | 6

14.43 ГБ

В этой теме нет новых непрочитанных сообщений. Приключения Чака и его друзей / The Adventures of Chuck & Friends [01-07, 09-37, 39 ] (2010-2012) SATRip | D

7 | 2

9.12 ГБ




Вы не можете начинать темы
Вы не можете отвечать на сообщения
Вы не можете редактировать свои сообщения
Вы не можете удалять свои сообщения
Вы не можете добавлять вложения

Перейти:  
Для Мосгорсуда, Роскомнадзора и рекламодателей: mosgorsud-torrent[собачка]yandex.ru
 Вход
ppkBB3cker v.2 © 2008-2014 @ PPK
[ Time : 0.024s | 14 Queries | GZIP : Off ]
CGP output time : 0.081s | 5 Queries | GZIP : Off

Торрент трекер RUTOR.IN, Не можете зайти на rutor.org? Какой новый адрес рутор? Какое зеркало рутор? Не работает rutor.org и зеркала? Тогда наш торрент специально для вас. Rutor.in неофициальное зеркало rutor. В случае если у Вас заблокирован rutor или вдруг Вы не можете на него зайти, то Вы без труда сможете скачать бесплатно и без рекламы последние новинки кино, игр, сериалов и прочего у нас, на Rutor.in. Не нужно использовать прокси, чтобы зайти на рутор, достаточно воспользоваться нашим ресурсом. Все новые фильмы, игры, сериалы, книги и музыка за 2013 и 2014 годы через торрент бесплатно. Скачивайте фильмы в хорошем качестве, игры для пк, xbox, playstation без регистрации. У нас вы найдете новые Зарубежные сериалы и Русские сериалы 2013, 2014, 2015 годов. Оставайтесь с нами, качайте любимые фильмы, игры, сериалы, книги и музыку.