img image001 image001 image001 image001 image001 image001 image001 image001 image001 image001 image001 image001 image001 image001 image001

Planets Sun Sun Sun
Статистика раздачи
Автор: Nickolas3434 | Размер: 4.38 ГБ | Добавлен: 28 апр 2014
Раздают: 207    Качают: 16
Скачать торрент
Скачать торрент
Описание торрента

СообщениеДобавлено: 28 апр 2014 


Информация о фильме
Название: Космический пират Харлок
Оригинальное название: Space Pirate Captain Harlock
Год выпуска: 2013
Жанр: Мультфильм, фантастика, боевик, приключения
Режиссер: Синдзи Арамаки / Shinji Aramaki
В ролях: Шун Огури, Аои Ю, Аяно Фукуда, Арата Фурута, Киёси Кобаяси, Харума Миура, Морикава Тосиюки, Тикао Оцука, Маая Сакамото, Миюки Савасиро
О фильме: В будущем человечество обнаружило способ путешествовать быстрее света и построило колонии на тысячах планет. Но даже ресурсы Вселенной начинают сокращаться, поэтому пятьсот миллиардов людей начинают долгое путешествие обратно домой. Желание населить Землю перерастает в войну, пока универсальное правительство коалиции не объявляет Землю священной, и, таким образом, недоступной. В этой умирающей Вселенной космический пират, Капитан Харлок, преследующий таинственные цели, путешествует на своем очень мощном флагмане Аркадии. Молодой Яма, брат командующего флотом Ездры, проникает в экипаж Аркадии, чтобы раскрыть цели пиратского капитана.

Производство: Япония, США, Франция / Toei Animation Company
Продолжительность: 01:55:06
Перевод: Авторский (одноголосый, закадровый) - Ю.Живов; Любительский многоголосый - FireDub
Файл
Качество: BDRip-AVC
Формат: MKV
Видео: MPEG4/AVC, 1084x454 (2.40:1), 3529 Кбит/сек, 23.976 кадра/сек
Аудио 1: AC3, 6 каналов, 640 Кбит/сек | Ю.Живов
Аудио 2: AC3, 6 каналов, 640 Кбит/сек | Любительский многоголосый - FireDub
Аудио 3: AC3, 6 каналов, 640 Кбит/сек | Японский
Субтитры: Русские, английские
Навигация по главам: Есть
Общее
Уникальный идентификатор : 174836803362379787203084951303678244991 (0x838857EF765A8F9DBAF84FC0041EB87F)
Полное имя : Space Pirate Captain Harlock. (2013) BDRip-AVC.mkv
Формат : Matroska
Версия формата : Version 2
Размер файла : 4,38 Гбайт
Продолжительность : 1 ч. 55 м.
Общий поток : 5447 Кбит/сек
Название фильма : Space Pirate Captain Harlock (2013)
Дата кодирования : UTC 2014-04-22 08:55:23
Программа кодирования : mkvmerge v5.8.0 ('No Sleep / Pillow') built on Sep 2 2012 15:37:04
Библиотека кодирования : libebml v1.2.3 + libmatroska v1.3.0
Видео
Идентификатор : 1
Формат : AVC
Формат/Информация : Advanced Video Codec
Профиль формата : High@L4.1
Параметр CABAC формата : Да
Параметр ReFrames формата : 9 кадров
Идентификатор кодека : V_MPEG4/ISO/AVC
Продолжительность : 1 ч. 55 м.
Битрейт : 3529 Кбит/сек
Ширина : 1084 пикселя
Высота : 454 пикселя
Соотношение сторон : 2,40:1
Режим частоты кадров : Постоянный
Частота кадров : 23,976 кадра/сек
Цветовое пространство : YUV
Субдискретизация насыщенности : 4:2:0
Битовая глубина : 8 бит
Тип развёртки : Прогрессивная
Бит/(Пиксели*Кадры) : 0.299
Размер потока : 2,75 Гбайт (63%)
Библиотека кодирования : x264 core 142 r2409 d6b4e63
Настройки программы : cabac=1 / ref=9 / deblock=1:-2:-2 / analyse=0x3:0x133 / me=umh / subme=11 / psy=1 / psy_rd=0.95:0.05 / mixed_ref=1 / me_range=32 / chroma_me=1 / trellis=2 / 8x8dct=1 / cqm=0 / deadzone=21,11 / fast_pskip=0 / chroma_qp_offset=-3 / threads=6 / lookahead_threads=1 / sliced_threads=0 / nr=0 / decimate=1 / interlaced=0 / bluray_compat=0 / constrained_intra=0 / bframes=8 / b_pyramid=2 / b_adapt=2 / b_bias=0 / direct=3 / weightb=1 / open_gop=0 / weightp=2 / keyint=240 / keyint_min=23 / scenecut=40 / intra_refresh=0 / rc=2pass / mbtree=0 / bitrate=3529 / ratetol=2.0 / qcomp=0.70 / qpmin=0 / qpmax=69 / qpstep=4 / cplxblur=20.0 / qblur=0.5 / ip_ratio=1.40 / pb_ratio=1.30 / aq=2:0.90
Язык : English
Default : Да
Forced : Нет
Аудио #1
Идентификатор : 2
Формат : AC-3
Формат/Информация : Audio Coding 3
Расширение режима : CM (complete main)
Параметр Endianness формата : Big
Идентификатор кодека : A_AC3
Продолжительность : 1 ч. 55 м.
Вид битрейта : Постоянный
Битрейт : 640 Кбит/сек
Каналы : 6 каналов
Расположение каналов : Front: L C R, Side: L R, LFE
Частота : 48,0 КГц
Битовая глубина : 16 бит
Метод сжатия : С потерями
Размер потока : 527 Мбайт (12%)
Заголовок : A | Ю. Живов
Язык : Russian
Default : Да
Forced : Нет
Аудио #2
Идентификатор : 3
Формат : AC-3
Формат/Информация : Audio Coding 3
Расширение режима : CM (complete main)
Параметр Endianness формата : Big
Идентификатор кодека : A_AC3
Продолжительность : 1 ч. 55 м.
Вид битрейта : Постоянный
Битрейт : 640 Кбит/сек
Каналы : 6 каналов
Расположение каналов : Front: L C R, Side: L R, LFE
Частота : 48,0 КГц
Битовая глубина : 16 бит
Метод сжатия : С потерями
Размер потока : 527 Мбайт (12%)
Заголовок : L | FireDub (Galaktion & Sora & HeavyBlozar)
Язык : Russian
Default : Нет
Forced : Нет
Аудио #3
Идентификатор : 4
Формат : AC-3
Формат/Информация : Audio Coding 3
Расширение режима : CM (complete main)
Параметр Endianness формата : Big
Идентификатор кодека : A_AC3
Продолжительность : 1 ч. 55 м.
Вид битрейта : Постоянный
Битрейт : 640 Кбит/сек
Каналы : 6 каналов
Расположение каналов : Front: L C R, Side: L R, LFE
Частота : 48,0 КГц
Битовая глубина : 16 бит
Метод сжатия : С потерями
Размер потока : 527 Мбайт (12%)
Заголовок : Original | BD
Язык : Japanese
Default : Нет
Forced : Нет
Текст #1
Идентификатор : 5
Формат : UTF-8
Идентификатор кодека : S_TEXT/UTF8
Идентификатор кодека/Информация : UTF-8 Plain Text
Заголовок : Rus | Full
Язык : Russian
Default : Нет
Forced : Нет
Текст #2
Идентификатор : 6
Формат : UTF-8
Идентификатор кодека : S_TEXT/UTF8
Идентификатор кодека/Информация : UTF-8 Plain Text
Заголовок : Eng | Full-BD
Язык : English
Default : Нет
Forced : Нет
Меню
00:00:00.000 : en:00:00:00.000
00:02:00.453 : en:00:02:00.453
00:07:42.920 : en:00:07:42.920
00:14:16.897 : en:00:14:16.897
00:18:00.120 : en:00:18:00.120
00:24:02.315 : en:00:24:02.315
00:30:51.349 : en:00:30:51.349
00:40:31.053 : en:00:40:31.053
00:43:42.411 : en:00:43:42.411
00:49:21.500 : en:00:49:21.500
00:54:03.365 : en:00:54:03.365
01:06:38.244 : en:01:06:38.244
01:21:25.422 : en:01:21:25.422
01:23:40.557 : en:01:23:40.557
01:36:55.726 : en:01:36:55.726
01:41:41.512 : en:01:41:41.512
01:47:42.456 : en:01:47:42.456


Релиз от:



   Похожие торренты   Торрент   Размер 
В этой теме нет новых непрочитанных сообщений. Космический пират Харлок / Space Pirate Captain Harlock (2013) BDRip 720p

2375 | 304

4.39 ГБ

В этой теме нет новых непрочитанных сообщений. Космический пират Харлок / Space Pirate Captain Harlock / キャプテンハーロック ロック (2013) BDRip-AVC | L

1076 | 138

2.22 ГБ

В этой теме нет новых непрочитанных сообщений. Космический пират Харлок / Space Pirate Captain Harlock (2013) BDRip-AVC от HELLYWOOD | iTunes

412 | 31

2.13 ГБ

В этой теме нет новых непрочитанных сообщений. Космический пират Харлок / Space Pirate Captain Harlock (2013) BDRip-AVC от HELLYWOOD | iTunes

104 | 14

2.12 ГБ

В этой теме нет новых непрочитанных сообщений. Космический пират Харлок / Space Pirate Captain Harlock (2013) BDRip 1080p | 3D-Video | L

410 | 262

8.77 ГБ

В этой теме нет новых непрочитанных сообщений. Космический пират Харлок / Space Pirate Captain Harlock (2013) BDRip-AVC от HELLYWOOD | Ю.Живов

1452 | 325

2.18 ГБ

В этой теме нет новых непрочитанных сообщений. Космический пират Харлок / Space Pirate Captain Harlock (2013) BDRip 720p | Лицензия

1051 | 73

3.12 ГБ




Вы не можете начинать темы
Вы не можете отвечать на сообщения
Вы не можете редактировать свои сообщения
Вы не можете удалять свои сообщения
Вы не можете добавлять вложения

Перейти:  
Для Мосгорсуда, Роскомнадзора и рекламодателей: mosgorsud-torrent[собачка]yandex.ru
 Вход
ppkBB3cker v.2 © 2008-2014 @ PPK
[ Time : 0.073s | 14 Queries | GZIP : Off ]

Торрент трекер RUTOR.IN, Не можете зайти на rutor.org? Какой новый адрес рутор? Какое зеркало рутор? Не работает rutor.org и зеркала? Тогда наш торрент специально для вас. Rutor.in неофициальное зеркало rutor. В случае если у Вас заблокирован rutor или вдруг Вы не можете на него зайти, то Вы без труда сможете скачать бесплатно и без рекламы последние новинки кино, игр, сериалов и прочего у нас, на Rutor.in. Не нужно использовать прокси, чтобы зайти на рутор, достаточно воспользоваться нашим ресурсом. Все новые фильмы, игры, сериалы, книги и музыка за 2013 и 2014 годы через торрент бесплатно. Скачивайте фильмы в хорошем качестве, игры для пк, xbox, playstation без регистрации. У нас вы найдете новые Зарубежные сериалы и Русские сериалы 2013, 2014, 2015 годов. Оставайтесь с нами, качайте любимые фильмы, игры, сериалы, книги и музыку.