img image001 image001 image001 image001 image001 image001 image001 image001 image001 image001 image001 image001 image001 image001 image001

Planets Sun Sun Sun
Статистика раздачи
Автор: Nickolas3434 | Размер: 3.81 ГБ | Добавлен: 28 апр 2014
Раздают: 345    Качают: 25
Скачать торрент
Скачать торрент
Описание торрента

СообщениеДобавлено: 28 апр 2014 

Информация о фильме
Название: Тарзан
Оригинальное название: Tarzan
Год выпуска: 2013
Жанр: Мультфильм, семейный, приключения
Режиссер: Райнхард Клоосс
В ролях: Келлан Латс, Спенсер Лок, Тревор Ст. Джон, Лес Бабб, Брайан Блум, Брайан Хаски, Роберт Капрон, Джейми Рэй Ньюман, Марк Деклин, Джо Осмонд

О фильме: Во время крушения американского воздушного лайнера в джунглях погибли все пассажиры, выжил лишь один младенец. Он стал приемышем в стае диких обезьян, которые выкормили, вырастили его, научили выживать в этом жестком мире естественного отбора… Пришло время, и теперь мощный и ловкий, он должен защитить свой мир от врагов. Но главное — он должен снова стать человеком.



Выпущено: Германия, Ambient Entertainment GmbH, Constantin Film Produktion GmbH
Продолжительность: 01:34:11
Перевод: Дублированный

Файл
Качество: BDRip 720p
Видео: MPEG-4 AVC, 3640 Кбит/с, 1280x538, 23.976 кадр/с

Аудио #1: Русский (АС3, 6 ch, 640 Кбит/с) / Дублированный
Аудио #2: Русский (DTS, 6 ch, 1509 Кбит/с) / Дублированный

General
Unique ID : 172425851232574864791235071812125188493 (0x81B802D163AA7FA38267BD88E269E18D)
Complete name : C:Tarzan.2013.D.BDRip.720p.ExKinoRay.mkv
Format : Matroska
Format version : Version 2
File size : 3.81 GiB
Duration : 1h 34mn
Overall bit rate : 5 791 Kbps
Movie name : Tarzan from ExKinoRay
Encoded date : UTC 2014-04-23 01:41:27
Writing application : mkvmerge v4.9.1 ('Ich will') built on Jul 11 2011 23:53:15
Writing library : libebml v1.2.1 + libmatroska v1.1.1

Video
ID : 1
Format : AVC
Format/Info : Advanced Video Codec
Format profile : High@L4.1
Format settings, CABAC : Yes
Format settings, ReFrames : 8 frames
Codec ID : V_MPEG4/ISO/AVC
Duration : 1h 34mn
Bit rate : 3 640 Kbps
Width : 1 280 pixels
Height : 538 pixels
Display aspect ratio : 2.40:1
Frame rate mode : Constant
Frame rate : 23.976 fps
Color space : YUV
Chroma subsampling : 4:2:0
Bit depth : 8 bits
Scan type : Progressive
Bits/(Pixel*Frame) : 0.220
Stream size : 2.32 GiB (61%)
Title : Enigma-Vladislav71
Writing library : x264 core 116 r2044 392e762
Encoding settings : cabac=1 / ref=8 / deblock=1:-2:-2 / analyse=0x3:0x113 / me=umh / subme=9 / psy=1 / psy_rd=1.00:0.20 / mixed_ref=1 / me_range=32 / chroma_me=1 / trellis=2 / 8x8dct=1 / cqm=0 / deadzone=21,11 / fast_pskip=0 / chroma_qp_offset=-3 / threads=12 / sliced_threads=0 / nr=0 / decimate=0 / interlaced=0 / bluray_compat=0 / constrained_intra=0 / bframes=8 / b_pyramid=2 / b_adapt=2 / b_bias=0 / direct=3 / weightb=1 / open_gop=0 / weightp=2 / keyint=240 / keyint_min=23 / scenecut=40 / intra_refresh=0 / rc=2pass / mbtree=0 / bitrate=3640 / ratetol=1.0 / qcomp=0.60 / qpmin=0 / qpmax=69 / qpstep=4 / cplxblur=20.0 / qblur=0.5 / ip_ratio=1.40 / pb_ratio=1.30 / aq=1:1.00
Default : Yes
Forced : No

Audio #1
ID : 2
Format : AC-3
Format/Info : Audio Coding 3
Mode extension : CM (complete main)
Format settings, Endianness : Big
Codec ID : A_AC3
Duration : 1h 34mn
Bit rate mode : Constant
Bit rate : 640 Kbps
Channel(s) : 6 channels
Channel positions : Front: L C R, Side: L R, LFE
Sampling rate : 48.0 KHz
Bit depth : 16 bits
Compression mode : Lossy
Stream size : 431 MiB (11%)
Title : Dub
Language : Russian
Default : Yes
Forced : No

Audio #2
ID : 3
Format : DTS
Format/Info : Digital Theater Systems
Mode : 16
Format settings, Endianness : Big
Codec ID : A_DTS
Duration : 1h 34mn
Bit rate mode : Constant
Bit rate : 1 509 Kbps
Channel(s) : 6 channels
Channel positions : Front: L C R, Side: L R, LFE
Sampling rate : 48.0 KHz
Bit depth : 24 bits
Compression mode : Lossy
Stream size : 1 017 MiB (26%)
Title : Dub (DTS)
Language : Russian
Default : No
Forced : No

Menu
00:00:00.000 : en:00:00:00.000
00:07:14.017 : en:00:07:14.017
00:16:43.586 : en:00:16:43.586
00:23:57.019 : en:00:23:57.019
00:32:42.210 : en:00:32:42.210
00:39:06.302 : en:00:39:06.302
00:46:22.488 : en:00:46:22.488
00:56:07.656 : en:00:56:07.656
01:05:37.433 : en:01:05:37.433
01:14:57.827 : en:01:14:57.827
01:21:31.428 : en:01:21:31.428
01:25:21.616 : en:01:25:21.616






Релиз от:

Авторы релиза:

За исходник спасибо avproh



   Похожие торренты   Торрент   Размер 
В этой теме нет новых непрочитанных сообщений. Тарзан / Tarzan (2013) BDRip 720p от HELLYWOOD | Лицензия

164 | 45

4.37 ГБ

В этой теме нет новых непрочитанных сообщений. Тарзан 2D, 3D / Tarzan 2D, 3D (2013) BDRemux 1080p от ExKinoRay | 3D-Video | D | Лицензия

33 | 52

20.98 ГБ

В этой теме нет новых непрочитанных сообщений. Тарзан / Tarzan (2013) BDRip 720p от Leonardo and Scarabey | D | Лицензия

102 | 40

2.82 ГБ

В этой теме нет новых непрочитанных сообщений. Тарзан. Легенда / The Legend of Tarzan (2016) BDRip от ExKinoRay | Лицензия

145 | 7

1.46 ГБ

В этой теме нет новых непрочитанных сообщений. Тарзан. Легенда / The Legend of Tarzan (2016) BDRip 1080p от ExKinoRay | Лицензия

74 | 19

7.67 ГБ

В этой теме нет новых непрочитанных сообщений. Тарзан. Легенда / The Legend of Tarzan (2016) BDRip 720p от ExKinoRay | iTunes

23 | 56

5.77 ГБ

В этой теме нет новых непрочитанных сообщений. Тарзан / Tarzan (2013) BDRip от New-Team | D | лицензия

2536 | 151

1.46 ГБ




Вы не можете начинать темы
Вы не можете отвечать на сообщения
Вы не можете редактировать свои сообщения
Вы не можете удалять свои сообщения
Вы не можете добавлять вложения

Перейти:  
Для Мосгорсуда, Роскомнадзора и рекламодателей: mosgorsud-torrent[собачка]yandex.ru
 Вход
ppkBB3cker v.2 © 2008-2014 @ PPK
[ Time : 0.048s | 15 Queries | GZIP : Off ]

Торрент трекер RUTOR.IN, Не можете зайти на rutor.org? Какой новый адрес рутор? Какое зеркало рутор? Не работает rutor.org и зеркала? Тогда наш торрент специально для вас. Rutor.in неофициальное зеркало rutor. В случае если у Вас заблокирован rutor или вдруг Вы не можете на него зайти, то Вы без труда сможете скачать бесплатно и без рекламы последние новинки кино, игр, сериалов и прочего у нас, на Rutor.in. Не нужно использовать прокси, чтобы зайти на рутор, достаточно воспользоваться нашим ресурсом. Все новые фильмы, игры, сериалы, книги и музыка за 2013 и 2014 годы через торрент бесплатно. Скачивайте фильмы в хорошем качестве, игры для пк, xbox, playstation без регистрации. У нас вы найдете новые Зарубежные сериалы и Русские сериалы 2013, 2014, 2015 годов. Оставайтесь с нами, качайте любимые фильмы, игры, сериалы, книги и музыку.