img image001 image001 image001 image001 image001 image001 image001 image001 image001 image001 image001 image001 image001 image001 image001

Planets Sun Sun Sun
Статистика раздачи
Автор: Nickolas3434 | Размер: 2.11 ГБ | Добавлен: 28 апр 2014
Раздают: 283    Качают: 9
Скачать торрент
Скачать торрент
Описание торрента

СообщениеДобавлено: 28 апр 2014 

Информация о фильме
Название: Алиса в стране чудес
Оригинальное название: Alice in Wonderland
Год выхода: 1951
Жанр: Фэнтези, мюзикл, приключения, семейный, полнометражный, экранизация
Режиссер: Клайд Джероними, Уилфред Джексон, Хэмильтон Ласки
В ролях: Катрин Бомонт, Эд Винн, Ричард Хейдн, Стерлинг Холлоуэй, Джерри Колонна, Верна Фелтон, Билл Томпсон, Хэзер Эйнджел, Джозеф Кернс

О фильме:
Убежав из дома, Алиса увидела под старой яблоней большого белого кролика, одетого в куртку и жилет. Достав из кармана часы, кролик торопливо скрылся в подозрительно темной норе. Набравшись смелости, Алиса шагнула вслед за ним... и попала в чудесный сказочный мир, где сбываются самые несбыточные фантазии. Чтобы попасть обратно домой, Алисе придется совершить путешествие через весь этот странный и причудливый мир, в котором ее поджидают совершенно невероятные приключения и совершенно фантастические существа. Экранизация по произведению Льюис Кэрролл.



Страна: США, Walt Disney Productions
Продолжительность: 01:15:16
Перевод: Дублированный, профессиональный многоголосый, профессиональный двухголосый, авторский
Субтитры: Русские, английские
Дата релиза: 23.04.2014

Файл
Кодек: H.264
Качество: BDRip (AVC)
Видео: MPEG-4 AVC, 1900 Кбит/с, 760x576
Звук:
Аудио №1: Русский (AC3, 6 ch, 384 Кбит/с) - Дублированный
Аудио №2: Русский (AC3, 6 ch, 448 Кбит/с) - Профессиональный многоголосый
Аудио №3: Русский (AC3, 6 ch, 384 Кбит/с) - Профессиональный двухголосый (Гланц и Королева)
Аудио №4: Русский (AC3, 6 ch, 448 Кбит/с) - Авторский одноголосый (Михалев)
Аудио №5: Английский (AC3, 6 ch, 448 Кбит/с)

Общее
Уникальный идентификатор : 207247254127058373924059931452736086723 (0x9BEA5E87EC812379B0C51C23554522C3)
Полное имя : D:7Alisa.v.strane.chudes.1951.x264.BDRip.(AVC).ExKinoRay.mkv
Формат : Matroska
Размер файла : 2,11 Гбайт
Продолжительность : 1 ч. 15 м.
Общий поток : 4014 Кбит/сек
Название фильма : Alisa.v.strane.chudes.1951.x264.BDRip.(AVC).ExKinoRay
Дата кодирования : UTC 2014-04-15 18:51:43
Программа кодирования : mkvmerge v4.0.0 ('The Stars were mine') сборка от Jun 6 2010 16:18:42
Библиотека кодирования : libebml v1.0.0 + libmatroska v1.0.0

Видео
Идентификатор : 1
Формат : AVC
Формат/Информация : Advanced Video Codec
Профиль формата : High@L4.1
Параметр CABAC формата : Да
Параметр ReFrames формата : 8 кадров
Идентификатор кодека : V_MPEG4/ISO/AVC
Продолжительность : 1 ч. 15 м.
Битрейт : 1900 Кбит/сек
Ширина : 760 пикс.
Высота : 576 пикс.
Соотношение сторон : 4:3
Частота кадров : 23,976 кадр/сек
Цветовое пространство : YUV
Подвыборка цветности : 4:2:0
Битовая глубина : 8 бит
Тип развёртки : Прогрессивная
Бит/(Пиксели*Кадры) : 0.181
Размер потока : 981 Мбайт (45%)
Заголовок : Rip by Enigma-Vladislav71
Библиотека кодирования : x264 core 125 r2208 d9d2288
Настройки программы : cabac=1 / ref=8 / deblock=1:-2:-2 / analyse=0x3:0x133 / me=umh / subme=11 / psy=1 / psy_rd=1.00:0.00 / mixed_ref=1 / me_range=48 / chroma_me=1 / trellis=2 / 8x8dct=1 / cqm=0 / deadzone=21,11 / fast_pskip=0 / chroma_qp_offset=-2 / threads=3 / lookahead_threads=1 / sliced_threads=0 / nr=0 / decimate=0 / interlaced=0 / bluray_compat=0 / constrained_intra=0 / bframes=8 / b_pyramid=2 / b_adapt=2 / b_bias=0 / direct=3 / weightb=1 / open_gop=0 / weightp=2 / keyint=240 / keyint_min=23 / scenecut=40 / intra_refresh=0 / rc=2pass / mbtree=0 / bitrate=1900 / ratetol=1.0 / qcomp=0.60 / qpmin=10 / qpmax=51 / qpstep=4 / cplxblur=20.0 / qblur=0.5 / ip_ratio=1.40 / pb_ratio=1.30 / aq=1:1.00
Язык : English

Аудио #1
Идентификатор : 2
Формат : AC-3
Формат/Информация : Audio Coding 3
Расширение режима : CM (complete main)
Идентификатор кодека : A_AC3
Продолжительность : 1 ч. 15 м.
Вид битрейта : Постоянный
Битрейт : 384 Кбит/сек
Каналы : 6 каналов
Расположение каналов : Front: L C R, Side: L R, LFE
Частота : 48,0 КГц
Битовая глубина : 16 бит
Метод сжатия : С потерями
Размер потока : 207 Мбайт (10%)
Заголовок : дублированный
Язык : Russian

Аудио #2
Идентификатор : 3
Формат : AC-3
Формат/Информация : Audio Coding 3
Расширение режима : CM (complete main)
Идентификатор кодека : A_AC3
Продолжительность : 1 ч. 15 м.
Вид битрейта : Постоянный
Битрейт : 448 Кбит/сек
Каналы : 6 каналов
Расположение каналов : Front: L C R, Side: L R, LFE
Частота : 48,0 КГц
Битовая глубина : 16 бит
Метод сжатия : С потерями
Размер потока : 241 Мбайт (11%)
Заголовок : многоголосый
Язык : Russian

Аудио #3
Идентификатор : 4
Формат : AC-3
Формат/Информация : Audio Coding 3
Расширение режима : CM (complete main)
Идентификатор кодека : A_AC3
Продолжительность : 1 ч. 15 м.
Вид битрейта : Постоянный
Битрейт : 384 Кбит/сек
Каналы : 6 каналов
Расположение каналов : Front: L C R, Side: L R, LFE
Частота : 48,0 КГц
Битовая глубина : 16 бит
Метод сжатия : С потерями
Размер потока : 207 Мбайт (10%)
Заголовок : двухголосый (Гланц и Королева)
Язык : Russian

Аудио #4
Идентификатор : 5
Формат : AC-3
Формат/Информация : Audio Coding 3
Расширение режима : CM (complete main)
Идентификатор кодека : A_AC3
Продолжительность : 1 ч. 15 м.
Вид битрейта : Постоянный
Битрейт : 448 Кбит/сек
Каналы : 6 каналов
Расположение каналов : Front: L C R, Side: L R, LFE
Частота : 48,0 КГц
Битовая глубина : 16 бит
Метод сжатия : С потерями
Размер потока : 241 Мбайт (11%)
Заголовок : авторский одноголосый (Михалев)
Язык : Russian

Аудио #5
Идентификатор : 6
Формат : AC-3
Формат/Информация : Audio Coding 3
Расширение режима : CM (complete main)
Идентификатор кодека : A_AC3
Продолжительность : 1 ч. 15 м.
Вид битрейта : Постоянный
Битрейт : 448 Кбит/сек
Каналы : 6 каналов
Расположение каналов : Front: L C R, Side: L R, LFE
Частота : 48,0 КГц
Битовая глубина : 16 бит
Метод сжатия : С потерями
Размер потока : 241 Мбайт (11%)
Заголовок : английский
Язык : English

Текст #1
Идентификатор : 7
Формат : UTF-8
Идентификатор кодека : S_TEXT/UTF8
Идентификатор кодека/Информация : UTF-8 Plain Text
Язык : Russian

Текст #2
Идентификатор : 8
Формат : UTF-8
Идентификатор кодека : S_TEXT/UTF8
Идентификатор кодека/Информация : UTF-8 Plain Text
Язык : English

Меню
00:00:00.000 : en:Chapter 01
00:01:42.101 : en:Chapter 02
00:02:58.010 : en:Chapter 03
00:04:48.621 : en:Chapter 04
00:07:28.739 : en:Chapter 05
00:08:11.656 : en:Chapter 06
00:10:33.089 : en:Chapter 07
00:13:14.710 : en:Chapter 08
00:15:03.527 : en:Chapter 09
00:20:53.251 : en:Chapter 10
00:22:47.074 : en:Chapter 11
00:26:21.413 : en:Chapter 12
00:27:16.676 : en:Chapter 13
00:31:50.074 : en:Chapter 14
00:36:34.233 : en:Chapter 15
00:38:30.141 : en:Chapter 16
00:41:36.660 : en:Chapter 17
00:47:45.487 : en:Chapter 18
00:50:00.622 : en:Chapter 19
00:53:58.568 : en:Chapter 20
00:56:08.864 : en:Chapter 21
00:57:18.434 : en:Chapter 22
00:58:58.910 : en:Chapter 23
01:00:09.981 : en:Chapter 24
01:02:35.710 : en:Chapter 25
01:06:52.049 : en:Chapter 26
01:11:29.785 : en:Chapter 27



Релиз от:

Авторы релиза:



   Похожие торренты   Торрент   Размер 
В этой теме нет новых непрочитанных сообщений. Алиса в стране чудес / Alice in Wonderland (1951) BDRip от HQCLUB

193 | 14

1.45 ГБ

В этой теме нет новых непрочитанных сообщений. Алиса в Стране Чудес / Alice in Wonderland (1951) BDRip 1080p

23 | 5

5.82 ГБ

В этой теме нет новых непрочитанных сообщений. Алиса в стране чудес / Alice in Wonderland (1951) BDRip от HQ-ViDEO

186 | 11

1.46 ГБ

В этой теме нет новых непрочитанных сообщений. Алиса в стране чудес / Alice in Wonderland (1951) BDRip-AVC | iPad

60 | 5

1.37 ГБ

В этой теме нет новых непрочитанных сообщений. Алиса в стране чудес / Alice in Wonderland (1951) BDRip 720p от Freeisland

26 | 5

4.38 ГБ

В этой теме нет новых непрочитанных сообщений. Алиса в Стране Чудес / Alice in Wonderland (1951) Blu-Ray

3 | 4

40.74 ГБ

В этой теме нет новых непрочитанных сообщений. Алиса в Стране Чудес / Alice in Wonderland (1951) BDRemux

4 | 5

19.41 ГБ




Вы не можете начинать темы
Вы не можете отвечать на сообщения
Вы не можете редактировать свои сообщения
Вы не можете удалять свои сообщения
Вы не можете добавлять вложения

Перейти:  
Для Мосгорсуда, Роскомнадзора и рекламодателей: mosgorsud-torrent[собачка]yandex.ru
 Вход
ppkBB3cker v.2 © 2008-2014 @ PPK
[ Time : 0.067s | 15 Queries | GZIP : Off ]

Торрент трекер RUTOR.IN, Не можете зайти на rutor.org? Какой новый адрес рутор? Какое зеркало рутор? Не работает rutor.org и зеркала? Тогда наш торрент специально для вас. Rutor.in неофициальное зеркало rutor. В случае если у Вас заблокирован rutor или вдруг Вы не можете на него зайти, то Вы без труда сможете скачать бесплатно и без рекламы последние новинки кино, игр, сериалов и прочего у нас, на Rutor.in. Не нужно использовать прокси, чтобы зайти на рутор, достаточно воспользоваться нашим ресурсом. Все новые фильмы, игры, сериалы, книги и музыка за 2013 и 2014 годы через торрент бесплатно. Скачивайте фильмы в хорошем качестве, игры для пк, xbox, playstation без регистрации. У нас вы найдете новые Зарубежные сериалы и Русские сериалы 2013, 2014, 2015 годов. Оставайтесь с нами, качайте любимые фильмы, игры, сериалы, книги и музыку.