img image001 image001 image001 image001 image001 image001 image001 image001 image001 image001 image001 image001 image001 image001 image001

Planets Sun Sun Sun
Статистика раздачи
Автор: Nickolas3434 | Размер: 746.77 МБ | Добавлен: 28 апр 2014
Раздают: 71    Качают: 3
Скачать торрент
Скачать торрент
Описание торрента

СообщениеДобавлено: 28 апр 2014 

Страна: Австралия

Жанр: мультфильм
Год выпуска: 1993
Продолжительность: 00:49:26

Перевод: Профессиональный (многоголосый закадровый)
Оригинальная аудиодорожка: английский
Cубтитры: нет

Режиссер: Ричард Слапчински / Richard Slapczynski

Описание:
Какая сказка из «Тысячи и одной ночи» самая волшебная? Конечно, про Али-Бабу — неунывающего трудягу, который случайно узнал тайну сорока разбойников. Он произнес заклинание «Сезам, откройся» и в огромной горе открылась тайная пещера, где были собраны самые удивительные сокровища в мире! Золотые монеты всех султанов земли и горы невиданного жемчуга, драгоценное оружие великих воинов и золотые украшения древних царей были сокрыты за тайным заклинанием! Но шайка головорезов охраняла клад как зеницу ока. И теперь они идут по следу Али-Бабы, чтобы наказать наглеца, посмевшего вторгнуться в их заветную пещеру!





Исходник: DVD5 R5
Тип релиза: DVDRip
Контейнер: AVI

Видео: 688x512 (4:3), 25 fps, XviD ~ 1713 kbps avg, 0.195 bit/pixel
Аудио: 48 kHz, Dolby Digital AC3 2.0, 192 kbps MVO
Аудио: 48 kHz, Dolby Digital AC3 2.0, 192 kbps Английский

Раздача от:
Общее
Полное имя : Ali-Baba.i.tayna.razboynikov.1993.DVDRip_[New-team]_by_AVP_Studio.avi
Формат : AVI
Формат/Информация : Audio Video Interleave
Размер файла : 677 Мбайт
Продолжительность : 49 м.
Общий поток : 1915 Кбит/сек
Программа кодирования : VirtualDubModRus 1.5.10.2 (build 2542/release)
Библиотека кодирования : VirtualDubMod build 2542/release

Видео
Идентификатор : 0
Формат : MPEG-4 Visual
Профиль формата : Advanced Simple@L5
Параметр BVOP формата : 1
Параметр QPel формата : Нет
Параметр GMC формата : Без точки перехода
Параметр матрицы формата : Выборочная
Идентификатор кодека : XVID
Идентификатор кодека/Подсказка : XviD
Продолжительность : 49 м.
Битрейт : 1713 Кбит/сек
Ширина : 688 пикселей
Высота : 512 пикселей
Соотношение сторон : 4:3
Частота кадров : 25,000 кадров/сек
Цветовое пространство : YUV
Субдискретизация насыщенности : 4:2:0
Битовая глубина : 8 бит
Тип развёртки : Прогрессивная
Метод сжатия : С потерями
Бит/(Пиксели*Кадры) : 0.195
Размер потока : 606 Мбайт (89%)
Библиотека кодирования : XviD 73

Аудио
Идентификатор : 1
Формат : AC-3
Формат/Информация : Audio Coding 3
Расширение режима : CM (complete main)
Параметр Endianness формата : Big
Идентификатор кодека : 2000
Продолжительность : 49 м.
Вид битрейта : Постоянный
Битрейт : 192 Кбит/сек
Каналы : 2 канала
Расположение каналов : Front: L R
Частота : 48,0 КГц
Битовая глубина : 16 бит
Метод сжатия : С потерями
Размер потока : 67,9 Мбайт (10%)
Выравнивание : Разделение по промежуткам
Продолжительность промежутка : 40 мс. (1,00 видеокадр)
Время предзагрузки промежутка : 500 мс





   Похожие торренты   Торрент   Размер 
В этой теме нет новых непрочитанных сообщений. Али-Баба и тайна разбойников / Ali-Baba (1993) DVDRip-AVC от New-Team

35 | 4

744.23 МБ

В этой теме нет новых непрочитанных сообщений. Али Баба и 40 разбойников / Ali Baba et les quarante voleurs (1954) DVDRip-AVC

58 | 9

1.44 ГБ

В этой теме нет новых непрочитанных сообщений. Али Баба и 40 разбойников / Ali Baba et les quarante voleurs (1954) DVDRip от Generalfilm

5 | 1

1.37 ГБ

В этой теме нет новых непрочитанных сообщений. Али Баба и 40 разбойников / Ali Baba and the Forty Thieves (1944) DVDRip от Generalfilm

6 | 8

1.37 ГБ

В этой теме нет новых непрочитанных сообщений. Али Баба и 40 разбойников / Ali Baba And The Forty Thieves (1944) DVD5

2 | 7

4.35 ГБ

В этой теме нет новых непрочитанных сообщений. Али Баба и 40 разбойников / Ali Baba and the Forty Thieves (1944) HDRip

86 | 18

1.42 ГБ

В этой теме нет новых непрочитанных сообщений. Морячок Папай: Али-Баба и сорок разбойников Сборник мультфильмов / Papeye the Soilor meets Ali Baba's Forty Thie (1936-1957) DVDRip от Gold Cartoon KINOREAKTOR Sheikn

18 | 197

1.55 ГБ




Вы не можете начинать темы
Вы не можете отвечать на сообщения
Вы не можете редактировать свои сообщения
Вы не можете удалять свои сообщения
Вы не можете добавлять вложения

Перейти:  
Для Мосгорсуда, Роскомнадзора и рекламодателей: mosgorsud-torrent[собачка]yandex.ru
 Вход
ppkBB3cker v.2 © 2008-2014 @ PPK
[ Time : 0.100s | 17 Queries | GZIP : Off ]

Торрент трекер RUTOR.IN, Не можете зайти на rutor.org? Какой новый адрес рутор? Какое зеркало рутор? Не работает rutor.org и зеркала? Тогда наш торрент специально для вас. Rutor.in неофициальное зеркало rutor. В случае если у Вас заблокирован rutor или вдруг Вы не можете на него зайти, то Вы без труда сможете скачать бесплатно и без рекламы последние новинки кино, игр, сериалов и прочего у нас, на Rutor.in. Не нужно использовать прокси, чтобы зайти на рутор, достаточно воспользоваться нашим ресурсом. Все новые фильмы, игры, сериалы, книги и музыка за 2013 и 2014 годы через торрент бесплатно. Скачивайте фильмы в хорошем качестве, игры для пк, xbox, playstation без регистрации. У нас вы найдете новые Зарубежные сериалы и Русские сериалы 2013, 2014, 2015 годов. Оставайтесь с нами, качайте любимые фильмы, игры, сериалы, книги и музыку.