img image001 image001 image001 image001 image001 image001 image001 image001 image001 image001 image001 image001 image001 image001 image001 image001

Planets Sun Sun Sun
Статистика раздачи
Автор: Nickolas3434 | Размер: 744.23 МБ | Добавлен: 28 апр 2014
Раздают: 35    Качают: 3
Скачать торрент
Скачать торрент
Описание торрента

СообщениеДобавлено: 28 апр 2014 

Страна: Австралия
Производство: Burbank Animation Studios PTY LTD

Жанр: мультфильм
Год выпуска: 1993
Продолжительность: 00:49:26

Перевод: Профессиональный (многоголосый закадровый)
Оригинальная аудиодорожка: английский
Cубтитры: нет

Режиссер: Ричард Слапчински / Richard Slapczynski

Описание:
Какая сказка из «Тысячи и одной ночи» самая волшебная? Конечно, про Али-Бабу — неунывающего трудягу, который случайно узнал тайну сорока разбойников. Он произнес заклинание «Сезам, откройся» и в огромной горе открылась тайная пещера, где были собраны самые удивительные сокровища в мире! Золотые монеты всех султанов земли и горы невиданного жемчуга, драгоценное оружие великих воинов и золотые украшения древних царей были сокрыты за тайным заклинанием! Но шайка головорезов охраняла клад как зеницу ока. И теперь они идут по следу Али-Бабы, чтобы наказать наглеца, посмевшего вторгнуться в их заветную пещеру!





Исходник: DVD5 R5
Тип релиза: DVDRip-AVC
Контейнер: MKV

Видео: 696->744x572 (4:3), 25 fps, H264 ~ 1719 kbps avg, 0.173 bit/pixel
Аудио: 48 kHz, Dolby Digital AC3 2.0, 192 kbps MVO
Аудио: 48 kHz, Dolby Digital AC3 2.0, 192 kbps Английский

Раздача от:
Общее
Полное имя : Ali-Baba.i.tayna.razboynikov.1993.DVDRip-AVC_[New-team]_by_AVP_Studio.mkv
Формат : Matroska
Версия формата : Version 4 / Version 2
Размер файла : 744 Мбайт
Продолжительность : 49 м.
Общий поток : 2104 Кбит/сек
Название фильма : Ali-Baba.i.tayna.razboynikov.1993.DVDRip-AVC_[New-team]_by_AVP_Studio
Дата кодирования : UTC 2014-04-24 14:29:51
Программа кодирования : mkvmerge v6.9.1 ('Blue Panther') 64bit built on Apr 18 2014 18:23:38
Библиотека кодирования : libebml v1.3.0 + libmatroska v1.4.1

Видео
Идентификатор : 1
Формат : AVC
Формат/Информация : Advanced Video Codec
Профиль формата : High@L4.1
Параметр CABAC формата : Да
Параметр ReFrames формата : 8 кадров
Идентификатор кодека : V_MPEG4/ISO/AVC
Продолжительность : 49 м.
Битрейт : 1719 Кбит/сек
Ширина : 696 пикселей
Высота : 572 пикселя
Соотношение сторон : 4:3
Режим частоты кадров : Постоянный
Частота кадров : 25,000 кадров/сек
Цветовое пространство : YUV
Субдискретизация насыщенности : 4:2:0
Битовая глубина : 8 бит
Тип развёртки : Прогрессивная
Бит/(Пиксели*Кадры) : 0.173
Размер потока : 594 Мбайт (80%)
Заголовок : Источник DVD
Библиотека кодирования : x264 core 138 r2356 a1d3d17
Настройки программы : cabac=1 / ref=8 / deblock=1:-2:-1 / analyse=0x3:0x113 / me=umh / subme=10 / psy=1 / psy_rd=1.00:0.05 / mixed_ref=1 / me_range=32 / chroma_me=1 / trellis=2 / 8x8dct=1 / cqm=0 / deadzone=21,11 / fast_pskip=0 / chroma_qp_offset=-3 / threads=3 / lookahead_threads=1 / sliced_threads=0 / nr=0 / decimate=0 / interlaced=0 / bluray_compat=0 / constrained_intra=0 / bframes=8 / b_pyramid=2 / b_adapt=2 / b_bias=0 / direct=3 / weightb=1 / open_gop=0 / weightp=2 / keyint=250 / keyint_min=25 / scenecut=40 / intra_refresh=0 / rc=2pass / mbtree=0 / bitrate=1719 / ratetol=1.0 / qcomp=0.60 / qpmin=0 / qpmax=69 / qpstep=4 / cplxblur=20.0 / qblur=0.5 / ip_ratio=1.40 / pb_ratio=1.30 / aq=1:1.00
Язык : English
Default : Да
Forced : Нет

Аудио #1
Идентификатор : 2
Формат : AC-3
Формат/Информация : Audio Coding 3
Расширение режима : CM (complete main)
Параметр Endianness формата : Big
Идентификатор кодека : A_AC3
Продолжительность : 49 м.
Вид битрейта : Постоянный
Битрейт : 192 Кбит/сек
Каналы : 2 канала
Расположение каналов : Front: L R
Частота : 48,0 КГц
Битовая глубина : 16 бит
Метод сжатия : С потерями
Размер потока : 67,9 Мбайт (9%)
Заголовок : Источник DVD Dolby Digital 2,0 192 kbps MVO
Язык : Russian
Default : Да
Forced : Нет

Аудио #2
Идентификатор : 3
Формат : AC-3
Формат/Информация : Audio Coding 3
Профиль формата : Dolby Digital
Расширение режима : CM (complete main)
Параметр Endianness формата : Big
Идентификатор кодека : A_AC3
Продолжительность : 49 м.
Вид битрейта : Постоянный
Битрейт : 192 Кбит/сек
Каналы : 2 канала
Расположение каналов : Front: L R
Частота : 48,0 КГц
Битовая глубина : 16 бит
Метод сжатия : С потерями
Размер потока : 67,9 Мбайт (9%)
Заголовок : Источник DVD Dolby Digital 2,0 192 kbps
Язык : English
Default : Нет
Forced : Нет

Меню
00:00:00.000 : ru:00:00:00.000000000
00:05:00.000 : :00:05:00.000000000
00:10:00.000 : :00:10:00.000000000
00:15:00.000 : :00:15:00.000000000
00:20:00.000 : :00:20:00.000000000
00:25:00.000 : :00:25:00.000000000
00:30:00.000 : :00:30:00.000000000
00:35:00.000 : :00:35:00.000000000
00:40:00.000 : :00:40:00.000000000
00:45:00.000 : :00:45:00.000000000





   Похожие торренты   Торрент   Размер 
В этой теме нет новых непрочитанных сообщений. Али-Баба и тайна разбойников / Ali-Baba (1993) DVDRip от New-Team

69 | 4

746.77 МБ

В этой теме нет новых непрочитанных сообщений. Али-баба и сорок разбойников (1959) DVDRip-AVC

37 | 4

483.24 МБ

В этой теме нет новых непрочитанных сообщений. Али-баба и сорок разбойников (1959) DVDRip-AVC

12 | 1

329.48 МБ

В этой теме нет новых непрочитанных сообщений. Баба Джун / Baba Joon (2015) HDRip | L1

0 | 0

1.38 ГБ

В этой теме нет новых непрочитанных сообщений. Аладдин и король разбойников / Aladdin and the King of Thiev (1996) DVDRip от New-Team | D

106 | 25

745.11 МБ

В этой теме нет новых непрочитанных сообщений. Аладдин и король разбойников / Aladdin and the King of Thiev (1996) DVDRip от New-Team | D

922 | 45

1.46 ГБ

В этой теме нет новых непрочитанных сообщений. Аладдин и король разбойников / Aladdin and the King of Thiev (1996) DVDRip-AVC от New-Team | D

204 | 24

1.46 ГБ




Вы не можете начинать темы
Вы не можете отвечать на сообщения
Вы не можете редактировать свои сообщения
Вы не можете удалять свои сообщения
Вы не можете добавлять вложения

Перейти:  
 Вход
ppkBB3cker v.2 © 2008-2014 @ PPK
[ Time : 0.039s | 16 Queries | GZIP : Off ]

cron