img image001 image001 image001 image001 image001 image001 image001 image001 image001 image001 image001 image001 image001 image001 image001

Planets Sun Sun Sun
Статистика раздачи
Автор: Nickolas3434 | Размер: 4.78 ГБ | Добавлен: 28 апр 2014
Раздают: 354    Качают: 29
Скачать торрент
Скачать торрент
Описание торрента

СообщениеДобавлено: 28 апр 2014 

Информация о фильме
Название: Реальная белка
Оригинальное название: The Nut Job
Год выхода: 2014
Жанр: мультфильм, комедия, приключения, семейный
Режиссер: Питер Лепениотис
В ролях: Уилл Арнетт, Брендан Фрейзер, Лиам Нисон, Кэтрин Хайгл, Стивен Лэнг, Майя Рудольф, Джефф Данэм, Гэбриел Иглесиас, Сара Гадон, Джеймс Ранкин

О фильме:
Обитающие в городском парке Либерти звери не оставляют своих привычек и делают запасы на зиму. Вот только этот год выдался кризисный, а зима уже не за горами, поэтому необходимо срочно пополнить кладовую. Когда в парке появляется тележка продавца орехов, которых сообществу разношерстной компании под руководством енота может хватить на всю зиму, за добычей командируются две белки, Энди и Грейсон. Но оказывается, что независимая белка Злюк и его приятель крысенок Бадди уже опередили остальных и приступили к собственной операции.

Разборки на захваченной тележке приводят к пожару, который уничтожает дерево с запасами. После этого происшествия уставшие от проделок Злюка звери решают прогнать его из парка, и белка оказывается на улицах города, где на каждом шагу подстерегает опасность. С помощью верного Бадди Злюк спасается от банды крыс и находит настоящую золотую жилу – магазин орехов. Вскоре Злюк узнает, что хозяева этого магазина не простые торговцы, а настоящие грабители, нацелившиеся на ближайший банк и давно планирующие свою операцию.



Выпущено: Канада, Корея Южная, США
Продолжительность: 01:25:54
Озвучивание: Дублированное [Чистый звук]

Файл
Формат: MKV
Качество: BDRip 720p [LolHD]
Видео: 6968 kb/s, 1280x694
Аудио: Russian: AC3, 192 kb/s (2 ch) / English: АС3, 640 kb/s (6 ch)
Субтитры: Russian [notabenoid], English
Дополнительно: Сохранены оригинальные чаптеры как на Blu-ray
Размер: 4.78 GB
Скачать: Сэмпл

Релиз группы:




Общее
The.Nut.Job.2014.Blu.Ray.720p.CINEMANIA.mkv
Формат : Matroska
Версия формата : Version 4 / Version 2
Размер файла : 4,78 Гбайт
Продолжительность : 1 ч. 25 м.
Общий поток : 7958 Кбит/сек
Название фильма : Release Group CINEMANIA
Дата кодирования : UTC 2014-04-24 14:52:51
Программа кодирования : mkvmerge v6.9.1 ('Blue Panther') 64bit built on Apr 18 2014 18:23:38
Библиотека кодирования : libebml v1.3.0 + libmatroska v1.4.1

Видео
Идентификатор : 1
Формат : AVC
Формат/Информация : Advanced Video Codec
Профиль формата : High@L4.1
Параметр CABAC формата : Да
Параметр ReFrames формата : 9 кадров
Идентификатор кодека : V_MPEG4/ISO/AVC
Продолжительность : 1 ч. 25 м.
Битрейт : 6968 Кбит/сек
Ширина : 1280 пикселей
Высота : 694 пикселя
Соотношение сторон : 1,85:1
Режим частоты кадров : Постоянный
Частота кадров : 23,976 кадра/сек
Цветовое пространство : YUV
Субдискретизация насыщенности : 4:2:0
Битовая глубина : 8 бит
Тип развёртки : Прогрессивная
Бит/(Пиксели*Кадры) : 0.327
Размер потока : 4,18 Гбайт (88%)
Заголовок : Release Group CINEMANIA
Библиотека кодирования : x264 core 142 r2409 d6b4e63
Настройки программы : cabac=1 / ref=9 / deblock=1:-3:-3 / analyse=0x3:0x133 / me=umh / subme=10 / psy=1 / psy_rd=0.55:0.00 / mixed_ref=1 / me_range=16 / chroma_me=1 / trellis=2 / 8x8dct=1 / cqm=0 / deadzone=21,11 / fast_pskip=0 / chroma_qp_offset=-2 / threads=6 / lookahead_threads=1 / sliced_threads=0 / nr=0 / decimate=1 / interlaced=0 / bluray_compat=0 / constrained_intra=0 / bframes=10 / b_pyramid=2 / b_adapt=2 / b_bias=0 / direct=3 / weightb=1 / open_gop=0 / weightp=2 / keyint=250 / keyint_min=23 / scenecut=40 / intra_refresh=0 / rc=crf / mbtree=0 / crf=14.0 / qcomp=0.75 / qpmin=0 / qpmax=69 / qpstep=4 / ip_ratio=1.40 / pb_ratio=1.20 / aq=1:1.10
Язык : English
Default : Да
Forced : Нет

Аудио #1
Идентификатор : 2
Формат : AC-3
Формат/Информация : Audio Coding 3
Расширение режима : CM (complete main)
Параметр Endianness формата : Big
Идентификатор кодека : A_AC3
Продолжительность : 1 ч. 25 м.
Вид битрейта : Постоянный
Битрейт : 192 Кбит/сек
Каналы : 2 канала
Расположение каналов : Front: L R
Частота : 48,0 КГц
Битовая глубина : 16 бит
Метод сжатия : С потерями
Размер потока : 118 Мбайт (2%)
Заголовок : Дубляж (Чистый Звук)
Язык : Russian
Default : Да
Forced : Да

Аудио #2
Идентификатор : 3
Формат : AC-3
Формат/Информация : Audio Coding 3
Расширение режима : CM (complete main)
Параметр Endianness формата : Big
Идентификатор кодека : A_AC3
Продолжительность : 1 ч. 25 м.
Вид битрейта : Постоянный
Битрейт : 640 Кбит/сек
Каналы : 6 каналов
Расположение каналов : Front: L C R, Side: L R, LFE
Частота : 48,0 КГц
Битовая глубина : 16 бит
Метод сжатия : С потерями
Размер потока : 393 Мбайт (8%)
Язык : English
Default : Нет
Forced : Нет

Текст #1
Идентификатор : 4
Формат : UTF-8
Идентификатор кодека : S_TEXT/UTF8
Идентификатор кодека/Информация : UTF-8 Plain Text
Заголовок : notabenoid
Язык : Russian
Default : Нет
Forced : Нет

Текст #2
Идентификатор : 5
Формат : UTF-8
Идентификатор кодека : S_TEXT/UTF8
Идентификатор кодека/Информация : UTF-8 Plain Text
Язык : English
Default : Нет
Forced : Нет

Меню
00:00:00.000 : en:00:00:00.000
00:02:35.614 : en:00:02:35.614
00:05:24.574 : en:00:05:24.574
00:09:57.430 : en:00:09:57.430
00:14:58.481 : en:00:14:58.481
00:17:30.091 : en:00:17:30.091
00:22:18.837 : en:00:22:18.837
00:27:58.677 : en:00:27:58.677
00:32:01.169 : en:00:32:01.169
00:37:50.435 : en:00:37:50.435
00:40:19.042 : en:00:40:19.042
00:44:56.611 : en:00:44:56.611
00:48:14.266 : en:00:48:14.266
00:53:17.528 : en:00:53:17.528
00:58:14.991 : en:00:58:14.991
01:03:04.072 : en:01:03:04.072
01:08:48.624 : en:01:08:48.624
01:13:57.183 : en:01:13:57.183
01:19:32.059 : en:01:19:32.059
01:23:11.737 : en:01:23:11.737



   Похожие торренты   Торрент   Размер 
В этой теме нет новых непрочитанных сообщений. Реальная белка / The Nut Job (2014) BDRip 720p от CINEMANIA | P, 2xL1

99 | 132

3.12 ГБ

В этой теме нет новых непрочитанных сообщений. Реальная белка / The Nut Job (2014) BDRip 1080p от CINEMANIA | D

483 | 83

6.15 ГБ

В этой теме нет новых непрочитанных сообщений. Реальная белка / The Nut Job (2014) BDRip 1080p от CINEMANIA | P, 2xL1

42 | 42

10.33 ГБ

В этой теме нет новых непрочитанных сообщений. Реальная белка / The Nut Job (2014) BDRip 720p | Лицензия

894 | 57

2.91 ГБ

В этой теме нет новых непрочитанных сообщений. Реальная белка / The Nut Job (2014) BDRip 720p | BaibaKo

822 | 180

3.59 ГБ

В этой теме нет новых непрочитанных сообщений. Реальная белка / The Nut Job (2014) BDRip 720p от HELLYWOOD | Лицензия

446 | 74

3.89 ГБ

В этой теме нет новых непрочитанных сообщений. Реальная белка / The Nut Job (2014) BDRip 720p от HELLYWOOD | BaibaKo

284 | 79

3.89 ГБ




Вы не можете начинать темы
Вы не можете отвечать на сообщения
Вы не можете редактировать свои сообщения
Вы не можете удалять свои сообщения
Вы не можете добавлять вложения

Перейти:  
Для Мосгорсуда, Роскомнадзора и рекламодателей: mosgorsud-torrent[собачка]yandex.ru
 Вход
ppkBB3cker v.2 © 2008-2014 @ PPK
[ Time : 0.524s | 15 Queries | GZIP : Off ]

Торрент трекер RUTOR.IN, Не можете зайти на rutor.org? Какой новый адрес рутор? Какое зеркало рутор? Не работает rutor.org и зеркала? Тогда наш торрент специально для вас. Rutor.in неофициальное зеркало rutor. В случае если у Вас заблокирован rutor или вдруг Вы не можете на него зайти, то Вы без труда сможете скачать бесплатно и без рекламы последние новинки кино, игр, сериалов и прочего у нас, на Rutor.in. Не нужно использовать прокси, чтобы зайти на рутор, достаточно воспользоваться нашим ресурсом. Все новые фильмы, игры, сериалы, книги и музыка за 2013 и 2014 годы через торрент бесплатно. Скачивайте фильмы в хорошем качестве, игры для пк, xbox, playstation без регистрации. У нас вы найдете новые Зарубежные сериалы и Русские сериалы 2013, 2014, 2015 годов. Оставайтесь с нами, качайте любимые фильмы, игры, сериалы, книги и музыку.