img image001 image001 image001 image001 image001 image001 image001 image001 image001 image001 image001 image001 image001 image001 image001

Planets Sun Sun Sun
Статистика раздачи
Автор: Nickolas3434 | Размер: 14.59 ГБ | Добавлен: 28 апр 2014
Раздают: 96    Качают: 60
Скачать торрент
Скачать торрент
Описание торрента

СообщениеДобавлено: 28 апр 2014 




Информация о фильме

Название : Драконы: Защитники Олуха
Оригинальное название : Dragons: Defenders of Berk

Год выхода : 2013
Страна : США
Производство : DreamWorks Animation SKG
Жанр : фэнтези, приключения, комедия, семейный
Режиссеры : Энтони Белл / Anthony Bell, Джон Санфорд / John Sanford, Луи Дел Кармен / Louie del Carmen
Роли озвучивали : Джей Барушель, Америка Феррера, Кристофер Минц-Плассе, ТиДжей Миллер, Нолан Норт, Крис Эджерли, Зак Перлман, Эндри Вермелен, Тим Конуэй, Томас Ф. Уилсон, Стивен Рут, Марк Хэмилл

Описание : Приключения драконов и всадников Олуха продолжаются. В новом сезоне юные викинги берут на себя ответственность по защите Олуха. Они формируют тайный Драконий Клуб, чтобы сражаться со старыми врагами с новыми знаниями о драконах и новыми лётными навыками, и начинают становиться из опытных всадников отважными защитниками.
Вместе с храбрыми друзьями - людьми, и верными союзниками - драконами, Иккинг и Беззубик выступят против старых неприятелей и новых врагов. Их ожидают захватывающие приключения, они столкнутся с редкими и дикими драконами, а также с врагом, способным поставить под угрозу само существование острова Олух.

Сериал служит мостом, связывающим фильм "Как приручить дракона" с его будущим полнометражным продолжением "Как приручить дракона 2", создатели которого тесно работают с создателями сериала. Вследствие всего этого в самом "Как приручить дракона 2" будут отсылки и сюрпризы, которые поймут только те, кто смотрел сериал. Премьера "Как приручить дракона 2" в России состоится 12 июня 2014-го года.
Продолжительность : ~22 мин. серия
Перевод : Субтитры [Kruks & Hanway]

Автор релиза : Hydrogenium

#77
Файл

Формат видео : MKV
Качество : WEB-DL 720p [iT00NZ]

Видео : AVC, 1280x718 (16:9), 23.976fps ~3900Kbps
Звук : AC3, 48.0 KHz, 6 ch, ~384 Kbps (Английский)
Субтитры : Русские (Kruks & Hanway), английские (внешним файлом)

1. Живи и давай летать другим / Live and Let Fly
2. Железный Громмель / The Iron Gronckle
3. Ночь и Фурия / The Night and the Fury
4. Туннельное виденье / Tunnel Vision
5. Путешествие на остров Огневичков / Race to Fireworm Island
6. Преодоление ужаса / Fright of Passage
7. Worst in Show / Худшие на соревновании
8. Appetite for Destruction / Страсть к разрушению
9. Zippleback Down / Падение Пристеголова
10. Вид на Скрилла. Часть 1 / A View To a Skrill Pt. 1
11. Вид на Скрилла. Часть 2 / A View To a Skrill Pt. 2
12. The Flight Stuff Ask Heirheads / Полётная всячина
13. Free Scauldy / Свободу Кипятилли
14. Frozen / Застывший
15. A Tale of Two Dragons / Повесть о двух драконах
16. The Eel Effect / Эффект Угря
17. Smoke Gets in Your Eyes / Дым застилает глаза
18. Bing Bang Boom / Бинг Банг Бум
19. Cast Out Part 1 / Изгнание, часть 1
20. Cast Out Part 2 / Изгнание, часть 2







General
Unique ID : 209717297817494117043313318370666606000 (0x9DC6151659588483B3ADCDC51C1BEDB0)
Complete name : D:МультфильмыDragons - Defenders of Berk [Season 2] (2013-2014) WEB-DL 720p [Rus, Eng]S02E01 - Live and Let Fly.mkv
Format : Matroska
Format version : Version 2
File size : 708 MiB
Duration : 22mn 37s
Overall bit rate : 4 375 Kbps
Encoded date : UTC 2013-09-21 07:28:11
Writing application : mkvmerge v5.7.0 ('The Whirlwind') built on Jul 29 2012 15:12:35
Writing library : libebml v1.2.3 + libmatroska v1.3.0

Video
ID : 1
Format : AVC
Format/Info : Advanced Video Codec
Format profile : High@L3.1
Format settings, CABAC : No
Format settings, ReFrames : 2 frames
Codec ID : V_MPEG4/ISO/AVC
Duration : 22mn 37s
Bit rate : 3 904 Kbps
Width : 1 280 pixels
Height : 718 pixels
Display aspect ratio : 16:9
Frame rate mode : Constant
Frame rate : 23.976 fps
Color space : YUV
Chroma subsampling : 4:2:0
Bit depth : 8 bits
Scan type : Progressive
Bits/(Pixel*Frame) : 0.177
Stream size : 632 MiB (89%)
Language : English
Default : Yes
Forced : No
Color primaries : BT.709
Transfer characteristics : BT.709
Matrix coefficients : BT.709

Audio
ID : 2
Format : AC-3
Format/Info : Audio Coding 3
Mode extension : CM (complete main)
Format settings, Endianness : Big
Codec ID : A_AC3
Duration : 22mn 37s
Bit rate mode : Constant
Bit rate : 384 Kbps
Channel(s) : 6 channels
Channel positions : Front: L C R, Side: L R, LFE
Sampling rate : 48.0 KHz
Bit depth : 16 bits
Compression mode : Lossy
Stream size : 62.1 MiB (9%)
Language : English
Default : No
Forced : No

Text
ID : 3
Format : UTF-8
Codec ID : S_TEXT/UTF8
Codec ID/Info : UTF-8 Plain Text
Language : English
Default : Yes
Forced : No







   Похожие торренты   Торрент   Размер 
В этой теме нет новых непрочитанных сообщений. Драконы: Защитники Олуха / Dragons: Defenders of Berk [S02] (2013) WEB-DL 1080p | D

220 | 84

17.87 ГБ

В этой теме нет новых непрочитанных сообщений. Драконы: Защитники Олуха / Dragons: Defenders of Berk [S02] (2013) WEB-DLRip | D

911 | 219

6.3 ГБ

В этой теме нет новых непрочитанных сообщений. Драконы: Защитники Олуха / Dragons: Defenders of Berk [S02x01-16 из 20] (2013) WEB-DL 1080p | D

32 | 49

14.27 ГБ

В этой теме нет новых непрочитанных сообщений. Драконы: Защитники Олуха / Dragons: Defenders of Berk [S02x01-16 из 20] (2013) WEB-DLRip | D

76 | 38

5.04 ГБ

В этой теме нет новых непрочитанных сообщений. Драконы: Защитники Олуха / Dragons: Defenders of Berk [S02x01-09 из 20] (2013) WEB-DLRip | D

169 | 17

2.84 ГБ

В этой теме нет новых непрочитанных сообщений. Драконы: Защитники Олуха / Dragons: Defenders of Berk [S02x01-11 из 20] (2013) WEB-DL 1080p | D

77 | 165

9.77 ГБ

В этой теме нет новых непрочитанных сообщений. Драконы: Защитники Олуха / Dragons: Defenders of Berk [S02x01-14 из 20] (2013) WEB-DL 1080p | D

34 | 159

12.46 ГБ




Вы не можете начинать темы
Вы не можете отвечать на сообщения
Вы не можете редактировать свои сообщения
Вы не можете удалять свои сообщения
Вы не можете добавлять вложения

Перейти:  
Для Мосгорсуда, Роскомнадзора и рекламодателей: mosgorsud-torrent[собачка]yandex.ru
 Вход
ppkBB3cker v.2 © 2008-2014 @ PPK
[ Time : 0.048s | 16 Queries | GZIP : Off ]

cron