img image001 image001 image001 image001 image001 image001 image001 image001 image001 image001 image001 image001 image001 image001 image001

Planets Sun Sun Sun
Статистика раздачи
Автор: Nickolas3434 | Размер: 2.91 ГБ | Добавлен: 28 апр 2014
Раздают: 114    Качают: 16
Скачать торрент
Скачать торрент
Описание торрента

СообщениеДобавлено: 28 апр 2014 

Информация о фильме
Название: Метропия
Оригинальное название: Metropia
Год выхода: 2009
Жанр: мультфильм, фантастика, триллер
Режиссер: Тарик Салех
В ролях: Винсент Галло, Джульетт Льюис, Удо Кир, Стеллан Скарсгард, Александр Скарсгард, София Хелин, Шанти Рони, Фарес Фарес, Фредерик Эддари, Дорин Манссон

О фильме: «Кто-то читает Ваши мысли»
2024 год. Все время идет дождь. В утопическом Евросоюзе больше никто не ездит на машинах и не летает на самолетах. Велосипед — вне закона. Все города соединены сетью метро. Главный герой живет с привлекательной мулаткой, но все его мысли и желания — о девушке с этикетки на упаковке шампуня. И однажды он встречает ее на одной из станций метро…


Страна: Швеция, Дания, Норвегия
Студия: Atmo Media Network, Sveriges Television (SVT), Zentropa Productions...
Продолжительность: 01:25:42
Перевод: Профессиональный (многоголосый, закадровый) Лицензия

Файл
Кодек: h.264 (MKV)
Качество: BDRip 720p
Видео: H.264, 1280x688, ~2908 kbps
Звук: Русский / Английский: AC-3, 6 ch, 448 kbps
Субтитры: Русский

ВНИМАНИЕ!!! Запрещен к просмотру, лицам младше 16 лет!

Семпл

Общее
Уникальный идентификатор : 186537395101020487793163484532821945153 (0x8C55CBA5B61C4553946392DFE4436B41)
Полное имя : H:Метропия Metropia (2009) [720p] BDRipMetropia.2009.720p.BDRip.mkv
Формат : Matroska
Версия формата : Version 2
Размер файла : 2,91 Гбайт
Продолжительность : 1 ч. 25 м.
Общий поток : 4868 Кбит/сек
Дата кодирования : UTC 2010-05-26 07:06:14
Программа кодирования : mkvmerge v3.4.0 ('Rapunzel') built on May 15 2010 09:38:20
Библиотека кодирования : libebml v0.8.0 + libmatroska v0.9.0
Attachment : Yes

Видео
Идентификатор : 1
Формат : AVC
Формат/Информация : Advanced Video Codec
Профиль формата : High@L4.1
Параметр CABAC формата : Да
Параметр ReFrames формата : 7 кадров
Идентификатор кодека : V_MPEG4/ISO/AVC
Продолжительность : 1 ч. 25 м.
Битрейт : 2907 Кбит/сек
Ширина : 1280 пикселей
Высота : 688 пикселей
Соотношение сторон : 1,85:1
Режим частоты кадров : Постоянный
Частота кадров : 24,000 кадра/сек
Цветовое пространство : YUV
Субдискретизация насыщенности : 4:2:0
Битовая глубина : 8 бит
Тип развёртки : Прогрессивная
Бит/(Пиксели*Кадры) : 0.138
Размер потока : 1,68 Гбайт (58%)
Библиотека кодирования : x264 core 96 r1602 69588a7
Настройки программы : cabac=1 / ref=7 / deblock=1:0:0 / analyse=0x3:0x113 / me=umh / subme=9 / psy=1 / psy_rd=1.00:0.00 / mixed_ref=1 / me_range=16 / chroma_me=1 / trellis=1 / 8x8dct=1 / cqm=0 / deadzone=21,11 / fast_pskip=1 / chroma_qp_offset=-2 / threads=12 / sliced_threads=0 / nr=0 / decimate=1 / interlaced=0 / constrained_intra=0 / bframes=5 / b_pyramid=2 / b_adapt=2 / b_bias=0 / direct=3 / weightb=1 / weightp=2 / keyint=250 / keyint_min=25 / scenecut=40 / intra_refresh=0 / rc_lookahead=50 / rc=2pass / mbtree=1 / bitrate=2907 / ratetol=1.0 / qcomp=0.60 / qpmin=10 / qpmax=51 / qpstep=4 / cplxblur=20.0 / qblur=0.5 / ip_ratio=1.40 / aq=1:1.00
Default : Да
Forced : Нет

Аудио #1
Идентификатор : 2
Формат : AC-3
Формат/Информация : Audio Coding 3
Расширение режима : CM (complete main)
Параметр Endianness формата : Big
Идентификатор кодека : A_AC3
Продолжительность : 1 ч. 25 м.
Вид битрейта : Постоянный
Битрейт : 448 Кбит/сек
Каналы : 6 каналов
Расположение каналов : Front: L C R, Side: L R, LFE
Частота : 48,0 КГц
Битовая глубина : 16 бит
Метод сжатия : С потерями
Размер потока : 275 Мбайт (9%)
Заголовок : MVO @ AC3 5.1 @ 448 kbps
Язык : Russian
Default : Да
Forced : Нет

Аудио #2
Идентификатор : 3
Формат : DTS
Формат/Информация : Digital Theater Systems
Режим : 16
Параметр Endianness формата : Big
Идентификатор кодека : A_DTS
Продолжительность : 1 ч. 25 м.
Вид битрейта : Постоянный
Битрейт : 1509 Кбит/сек
Каналы : 6 каналов
Расположение каналов : Front: L C R, Side: L R, LFE
Частота : 48,0 КГц
Битовая глубина : 24 бит
Метод сжатия : С потерями
Размер потока : 925 Мбайт (31%)
Заголовок : Original @ DTS 5.1 @ 1510 kbps
Язык : English
Default : Нет
Forced : Нет

Текст
Идентификатор : 4
Формат : UTF-8
Идентификатор кодека : S_TEXT/UTF8
Идентификатор кодека/Информация : UTF-8 Plain Text
Язык : Russian
Default : Нет
Forced : Нет



   Похожие торренты   Торрент   Размер 
В этой теме нет новых непрочитанных сообщений. Метропия / Metropia (2009) HDRip от Deadmauvlad | P | Лицензия

254 | 22

691.26 МБ

В этой теме нет новых непрочитанных сообщений. Метропия / Metropia (2009) HDRip

44 | 4

1.57 ГБ

В этой теме нет новых непрочитанных сообщений. Метропия / Metropia (2009) DVDRip

86 | 5

1.37 ГБ

В этой теме нет новых непрочитанных сообщений. Химера / Splice (2009) BDRip 720p | лицензия

54 | 10

4.7 ГБ

В этой теме нет новых непрочитанных сообщений. Толстяки / Gordos (2009) BDRip 720p | Лицензия

2 | 2

4.17 ГБ

В этой теме нет новых непрочитанных сообщений. О, счастливчик! (2009) BDRip 720p от ivandubskoj | Лицензия

134 | 29

4.38 ГБ

В этой теме нет новых непрочитанных сообщений. Ласковый май (2009) BDRip 720p от ivandubskoj | Лицензия

192 | 26

4.37 ГБ




Вы не можете начинать темы
Вы не можете отвечать на сообщения
Вы не можете редактировать свои сообщения
Вы не можете удалять свои сообщения
Вы не можете добавлять вложения

Перейти:  
Для Мосгорсуда, Роскомнадзора и рекламодателей: mosgorsud-torrent[собачка]yandex.ru
 Вход
ppkBB3cker v.2 © 2008-2014 @ PPK
[ Time : 0.038s | 16 Queries | GZIP : Off ]

cron