img image001 image001 image001 image001 image001 image001 image001 image001 image001 image001 image001 image001 image001 image001 image001

Planets Sun Sun Sun
Статистика раздачи
Автор: Nickolas3434 | Размер: 1.87 ГБ | Добавлен: 28 апр 2014
Раздают: 59    Качают: 6
Скачать торрент
Скачать торрент
Описание торрента

СообщениеДобавлено: 28 апр 2014 

Информация о фильме
Название: Реальная белка
Оригинальное название: The Nut Job
Год выхода: 2014
Жанр: мультфильм, комедия, приключения, семейный
Режиссер: Питер Лепениотис
В ролях: Уилл Арнетт, Брендан Фрейзер, Лиам Нисон, Кэтрин Хайгл, Стивен Лэнг, Майя Рудольф, Джефф Данэм, Гэбриел Иглесиас, Сара Гадон, Джеймс Ранкин

О фильме: Пытаясь выжить в городе, неразлучные друзья — белка Злюк и крысёнок Бадди натыкаются на магазин, до краёв набитый их любимым лакомством — орехами. Чувствуя, что «мечты сбываются», приятели планируют величайшее ограбление в истории грызунов. Но тут совсем некстати нарисовались бедные родственники из парка — прямо 13 друзей арахиса! Однако им всем невдомёк, что магазин орехов — лишь прикрытие для банды грабителей, которые намерены вырыть туннель под банк и подменить мешки с деньгами на мешки с теми самыми орехами.



Выпущено: Канада, Корея Южная, США
Продолжительность: 01:25:54
Перевод: Дублированный, профессиональный многоголосый
Субтитры: Русские, английские

Файл
Кодек: H264
Качество: BDRip (AVC) (исходник The.Nut.Job.2014.BDRemux.(1080p).ExKinoRay)
Видео: MPEG-4 AVC, 2022 Кбит/с, 1024x554
Звук: Русский (AC3, 2 ch, 192 кбит/c), (AC3, 6 ch, 448 кбит/c), английский (AC3, 6 ch, 448 Кбит/с)

General
Unique ID : 247387478643796995191171635584624212473 (0xBA1D18657E1D0CF3A4371D8EA3D3B9F9)
Complete name : C:The.Nut.Job.2014.D.P.BDRip.AVC.ExKinoRay.mkv
Format : Matroska
Format version : Version 2
File size : 1.87 GiB
Duration : 1h 25mn
Overall bit rate : 3 111 Kbps
Movie name : Realjnaya Belka from ExKinoRay
Encoded date : UTC 2014-04-25 14:57:17
Writing application : mkvmerge v4.9.1 ('Ich will') built on Jul 11 2011 23:53:15
Writing library : libebml v1.2.1 + libmatroska v1.1.1

Video
ID : 1
Format : AVC
Format/Info : Advanced Video Codec
Format profile : High@L4.1
Format settings, CABAC : Yes
Format settings, ReFrames : 8 frames
Codec ID : V_MPEG4/ISO/AVC
Duration : 1h 25mn
Bit rate : 2 022 Kbps
Width : 1 024 pixels
Height : 554 pixels
Display aspect ratio : 1.85:1
Frame rate mode : Constant
Frame rate : 23.976 fps
Color space : YUV
Chroma subsampling : 4:2:0
Bit depth : 8 bits
Scan type : Progressive
Bits/(Pixel*Frame) : 0.149
Stream size : 1.18 GiB (63%)
Title : Enigma-Vladislav71
Writing library : x264 core 116 r2044 392e762
Encoding settings : cabac=1 / ref=8 / deblock=1:-2:-1 / analyse=0x3:0x113 / me=umh / subme=9 / psy=1 / psy_rd=1.00:0.20 / mixed_ref=1 / me_range=32 / chroma_me=1 / trellis=2 / 8x8dct=1 / cqm=0 / deadzone=21,11 / fast_pskip=0 / chroma_qp_offset=-3 / threads=12 / sliced_threads=0 / nr=0 / decimate=0 / interlaced=0 / bluray_compat=0 / constrained_intra=0 / bframes=8 / b_pyramid=2 / b_adapt=2 / b_bias=0 / direct=3 / weightb=1 / open_gop=0 / weightp=2 / keyint=240 / keyint_min=23 / scenecut=40 / intra_refresh=0 / rc=2pass / mbtree=0 / bitrate=2022 / ratetol=1.0 / qcomp=0.60 / qpmin=0 / qpmax=69 / qpstep=4 / cplxblur=20.0 / qblur=0.5 / ip_ratio=1.40 / pb_ratio=1.30 / aq=1:1.00
Default : Yes
Forced : No

Audio #1
ID : 2
Format : AC-3
Format/Info : Audio Coding 3
Mode extension : CM (complete main)
Format settings, Endianness : Big
Codec ID : A_AC3
Duration : 1h 25mn
Bit rate mode : Constant
Bit rate : 192 Kbps
Channel(s) : 2 channels
Channel positions : Front: L R
Sampling rate : 48.0 KHz
Bit depth : 16 bits
Compression mode : Lossy
Stream size : 118 MiB (6%)
Title : DUB (Чистый звук)
Language : Russian
Default : No
Forced : No

Audio #2
ID : 3
Format : AC-3
Format/Info : Audio Coding 3
Mode extension : CM (complete main)
Format settings, Endianness : Big
Codec ID : A_AC3
Duration : 1h 25mn
Bit rate mode : Constant
Bit rate : 448 Kbps
Channel(s) : 6 channels
Channel positions : Front: L C R, Side: L R, LFE
Sampling rate : 48.0 KHz
Bit depth : 16 bits
Compression mode : Lossy
Stream size : 275 MiB (14%)
Title : Baibako
Default : No
Forced : No

Audio #3
ID : 4
Format : AC-3
Format/Info : Audio Coding 3
Mode extension : CM (complete main)
Format settings, Endianness : Big
Codec ID : A_AC3
Duration : 1h 25mn
Bit rate mode : Constant
Bit rate : 448 Kbps
Channel(s) : 6 channels
Channel positions : Front: L C R, Side: L R, LFE
Sampling rate : 48.0 KHz
Bit depth : 16 bits
Compression mode : Lossy
Stream size : 275 MiB (14%)
Language : English
Default : No
Forced : No

Text #1
ID : 5
Format : UTF-8
Codec ID : S_TEXT/UTF8
Codec ID/Info : UTF-8 Plain Text
Language : Russian
Default : No
Forced : No

Text #2
ID : 6
Format : UTF-8
Codec ID : S_TEXT/UTF8
Codec ID/Info : UTF-8 Plain Text
Language : English
Default : No
Forced : No

Menu
00:00:00.000 : en:00:00:00.000
00:02:35.614 : en:00:02:35.614
00:05:24.574 : en:00:05:24.574
00:09:57.430 : en:00:09:57.430
00:14:58.481 : en:00:14:58.481
00:17:30.091 : en:00:17:30.091
00:22:18.837 : en:00:22:18.837
00:27:58.677 : en:00:27:58.677
00:32:01.169 : en:00:32:01.169
00:37:50.435 : en:00:37:50.435
00:40:19.042 : en:00:40:19.042
00:44:56.611 : en:00:44:56.611
00:48:14.266 : en:00:48:14.266
00:53:17.528 : en:00:53:17.528
00:58:14.991 : en:00:58:14.991
01:03:04.072 : en:01:03:04.072
01:08:48.624 : en:01:08:48.624
01:13:57.183 : en:01:13:57.183
01:19:32.059 : en:01:19:32.059
01:23:11.737 : en:01:23:11.737





Релиз от:

Авторы релиза:



   Похожие торренты   Торрент   Размер 
В этой теме нет новых непрочитанных сообщений. Реальная белка / The Nut Job (2014) BDRip-AVC от ExKinoRay | Baibako | D | Лицензия

223 | 26

2.02 ГБ

В этой теме нет новых непрочитанных сообщений. Реальная белка 2D, 3D / The Nut Job 2D, 3D (2014) BDRemux от ExKinoRay | BaibaKo

6 | 15

31.22 ГБ

В этой теме нет новых непрочитанных сообщений. Реальная белка / The Nut Job (2014) BDRemux от ExKinoRay | BaibaKo

42 | 86

18.46 ГБ

В этой теме нет новых непрочитанных сообщений. Реальная белка / The Nut Job (2014) BDRemux 1080р от ExKinoRay | D, BaibaKo | Лицензия

30 | 17

21.16 ГБ

В этой теме нет новых непрочитанных сообщений. Реальная белка 2D, 3D / The Nut Job 2D, 3D (2014) BDRemux 1080р от ExKinoRay | 3D-Video | D, BaibaKo | Лицензия

28 | 15

34.2 ГБ

В этой теме нет новых непрочитанных сообщений. Реальная белка / The Nut Job (2014) BDRip 1080p | BaibaKo

1245 | 331

6.81 ГБ

В этой теме нет новых непрочитанных сообщений. Реальная белка / The Nut Job (2014) BDRip 720p | BaibaKo

822 | 180

3.59 ГБ




Вы не можете начинать темы
Вы не можете отвечать на сообщения
Вы не можете редактировать свои сообщения
Вы не можете удалять свои сообщения
Вы не можете добавлять вложения

Перейти:  
Для Мосгорсуда, Роскомнадзора и рекламодателей: mosgorsud-torrent[собачка]yandex.ru
 Вход
ppkBB3cker v.2 © 2008-2014 @ PPK
[ Time : 0.052s | 16 Queries | GZIP : Off ]

Торрент трекер RUTOR.IN, Не можете зайти на rutor.org? Какой новый адрес рутор? Какое зеркало рутор? Не работает rutor.org и зеркала? Тогда наш торрент специально для вас. Rutor.in неофициальное зеркало rutor. В случае если у Вас заблокирован rutor или вдруг Вы не можете на него зайти, то Вы без труда сможете скачать бесплатно и без рекламы последние новинки кино, игр, сериалов и прочего у нас, на Rutor.in. Не нужно использовать прокси, чтобы зайти на рутор, достаточно воспользоваться нашим ресурсом. Все новые фильмы, игры, сериалы, книги и музыка за 2013 и 2014 годы через торрент бесплатно. Скачивайте фильмы в хорошем качестве, игры для пк, xbox, playstation без регистрации. У нас вы найдете новые Зарубежные сериалы и Русские сериалы 2013, 2014, 2015 годов. Оставайтесь с нами, качайте любимые фильмы, игры, сериалы, книги и музыку.